<?xml version="1.0" standalone="no"?>
<!DOCTYPE svg PUBLIC "-//W3C//DTD SVG 1.1//EN" "http://www.w3.org/Graphics/SVG/1.1/DTD/svg11.dtd" >
<svg xmlns="http://www.w3.org/2000/svg" xmlns:xlink="http://www.w3.org/1999/xlink" version="1.1">
<metadata></metadata>
<defs>
<font id="baron_neue_boldbold" horiz-adv-x="1144" >
<font-face units-per-em="2048" ascent="1536" descent="-512" />
<missing-glyph horiz-adv-x="706" />
<glyph horiz-adv-x="0" />
<glyph horiz-adv-x="682" />
<glyph unicode=" "  horiz-adv-x="706" />
<glyph unicode="&#x09;" horiz-adv-x="706" />
<glyph unicode="&#xa0;" horiz-adv-x="706" />
<glyph unicode="!" horiz-adv-x="565" d="M125 133q0 60 45 105t106 45q65 0 110.5 -44.5t45.5 -105.5q0 -62 -45 -105.5t-111 -43.5q-62 0 -106.5 44t-44.5 105zM141 424v993q0 6 6 11.5t15 5.5h233q9 0 15 -5.5t6 -11.5v-993q0 -6 -6 -11t-15 -5h-233q-9 0 -15 5t-6 11z" />
<glyph unicode="&#x22;" horiz-adv-x="651" d="M45 971v446q0 6 6 11.5t15 5.5h192q9 0 15 -5.5t6 -11.5v-446q0 -6 -6 -11.5t-15 -5.5h-192q-9 0 -15 5.5t-6 11.5zM367 971v446q0 6 5.5 11.5t14.5 5.5h191q9 0 14.5 -5.5t5.5 -11.5v-446q0 -6 -5.5 -11.5t-14.5 -5.5h-191q-9 0 -14.5 5.5t-5.5 11.5z" />
<glyph unicode="#" horiz-adv-x="1339" d="M-4 311l57 203q4 12 21 12h176q14 54 94 326h-172q-10 0 -16.5 6t-3.5 14l55 199q4 12 20 12h179l96 338q2 5 8 9t12 4h211q11 0 17.5 -6.5t3.5 -14.5l-95 -330h193l96 338q2 5 8.5 9t12.5 4h211q10 0 16.5 -6.5t3.5 -14.5l-94 -330h151q11 0 17.5 -6.5t3.5 -13.5 l-55 -199q-4 -12 -21 -12h-158q-10 -33 -30.5 -102t-35.5 -120.5t-28 -103.5h152q10 0 16.5 -6t3.5 -14l-57 -203q-4 -12 -21 -12h-159l-80 -281q-4 -12 -19 -12h-213q-10 0 -16 6t-4 14l78 273h-193l-78 -281q-4 -12 -20 -12h-211q-9 0 -15 6.5t-3 13.5l73 273h-170 q-9 0 -15 6.5t-3 13.5zM475 500h234l110 379h-233z" />
<glyph unicode="$" horiz-adv-x="1112" d="M96 403q0 15 21 15h231q8 0 14.5 -4.5t6.5 -10.5q3 -76 55 -116.5t127 -40.5t128.5 44.5t53.5 117.5q0 77 -57 127t-125 53q-113 0 -217 47q-115 54 -176.5 149t-61.5 222q0 167 97 281.5t245 148.5v157q0 6 6 11.5t15 5.5h194q9 0 15 -5.5t6 -11.5v-157 q143 -36 232.5 -144t92.5 -258q0 -18 -20 -18h-229q-8 0 -14.5 5.5t-6.5 12.5q-3 73 -53 112.5t-125 39.5q-80 0 -131 -46t-51 -134q0 -74 53.5 -117t128.5 -43q111 0 213 -47q115 -55 177.5 -158.5t62.5 -232.5q0 -164 -92.5 -272t-237.5 -142v-148q0 -5 -6 -9.5t-15 -4.5 h-194q-9 0 -15 4.5t-6 9.5v148q-154 30 -247.5 135.5t-94.5 273.5z" />
<glyph unicode="%" horiz-adv-x="1359" d="M-10.5 13q-5.5 9 2.5 18l1087 1396q7 7 17 7h221q13 0 18.5 -9t-2.5 -18l-1087 -1397q-6 -6 -17 -6h-221q-13 0 -18.5 9zM29 1149q0 126 91.5 215.5t217.5 89.5t217.5 -89.5t91.5 -215.5q0 -124 -91.5 -213.5t-217.5 -89.5t-217.5 89.5t-91.5 213.5zM225 1149 q0 -49 33.5 -82t79.5 -33t79.5 33t33.5 82q0 50 -33.5 84.5t-79.5 34.5t-79.5 -34.5t-33.5 -84.5zM688 289q0 127 91 217t220 90q130 0 221 -89.5t91 -217.5t-91 -217.5t-221 -89.5q-129 0 -220 90t-91 217zM887 289q0 -49 32.5 -83t79.5 -34q46 0 80.5 34t34.5 83t-34.5 83 t-80.5 34q-47 0 -79.5 -34t-32.5 -83z" />
<glyph unicode="&#x26;" horiz-adv-x="1337" d="M73 504.5q23 172.5 160 304.5q-59 49 -87.5 120t-28.5 148q0 151 108.5 259t259.5 108q155 0 263 -108t108 -259q0 -88 -46.5 -169.5t-119.5 -137.5l184 -192v245q0 6 6 11.5t15 5.5h352q9 0 15 -5.5t6 -11.5v-190q0 -6 -6 -11.5t-15 -5.5h-155v-122q0 -37 -15 -91l-2 -4 l207 -204q4 -5 4 -13t-4 -12l-168 -166q-14 -10 -27 0l-151 150q-73 -82 -171 -126t-204 -44q-133 0 -238.5 51t-172.5 145q-100 152 -77 324.5zM337 483q-4 -44 10.5 -86t44 -74t76 -51.5t103.5 -19.5q109 0 185 88l-320 311q-45 -35 -70 -79.5t-29 -88.5zM365 1077 q0 -53 34.5 -91t85.5 -38q52 0 87.5 38t35.5 91t-35.5 90t-87.5 37q-51 0 -85.5 -37t-34.5 -90z" />
<glyph unicode="'" horiz-adv-x="339" d="M43 971v446q0 6 5.5 11.5t14.5 5.5h213q9 0 15 -5.5t6 -11.5v-446q0 -6 -6 -11.5t-15 -5.5h-213q-9 0 -14.5 5.5t-5.5 11.5z" />
<glyph unicode="(" horiz-adv-x="636" d="M106 721q0 363 183 702q5 9 18 9h271q12 0 16.5 -8t-2.5 -17q-213 -328 -213 -684q0 -374 211 -698q7 -9 2 -17t-17 -8h-270l-18 8q-181 338 -181 713z" />
<glyph unicode=")" horiz-adv-x="630" d="M32.5 8q-5.5 8 2.5 17q215 326 215 684q0 148 -41 303q-53 212 -172 395q-8 9 -2.5 17t18.5 8h271l18 -9q87 -167 133 -346q47 -178 47 -364q0 -363 -182 -705q-4 -8 -18 -8h-271q-13 0 -18.5 8z" />
<glyph unicode="*" horiz-adv-x="784" d="M59 1061v102q0 6 6 11.5t15 5.5h141l-115 114q-6 3 -6 10.5t6 12.5l72 72q14 11 29 0l108 -107v135q0 6 6 11.5t13 5.5h102q9 0 15 -5.5t6 -11.5v-135l106 107q15 11 29 0l72 -72q6 -5 6 -12.5t-6 -10.5l-115 -114h139q9 0 15 -5.5t6 -11.5v-102q0 -6 -6 -11.5t-15 -5.5 h-139l115 -112q6 -5 6 -12.5t-6 -12.5l-72 -69q-14 -11 -29 0l-106 104v-135q0 -6 -6 -11t-15 -5h-102q-7 0 -13 5t-6 11v135l-108 -104q-15 -11 -29 0l-72 69q-6 5 -6 12.5t6 12.5l115 112h-141q-9 0 -15 5.5t-6 11.5z" />
<glyph unicode="+" horiz-adv-x="956" d="M39 614v203q0 6 5.5 11.5t14.5 5.5h271v286q0 6 5.5 11.5t14.5 5.5h203q9 0 14.5 -5.5t5.5 -11.5v-286h285q9 0 15 -5.5t6 -11.5v-203q0 -6 -6 -11t-15 -5h-285v-291q0 -6 -5.5 -11t-14.5 -5h-203q-9 0 -14.5 5t-5.5 11v291h-271q-9 0 -14.5 5t-5.5 11z" />
<glyph unicode="," horiz-adv-x="380" d="M23 125q0 57 42 98t101 41q83 0 122.5 -44t39.5 -114q0 -80 -45.5 -167t-106.5 -125q-10 -6 -20.5 -1.5t-10.5 15.5v156q-52 6 -87 46.5t-35 94.5z" />
<glyph unicode="-" horiz-adv-x="907" d="M68 614v213q0 6 5.5 11.5t14.5 5.5h705q18 0 18 -17v-213q0 -16 -18 -16h-705q-9 0 -14.5 5t-5.5 11z" />
<glyph unicode="." horiz-adv-x="368" d="M35 129q0 59 42.5 101t100.5 42q62 0 105 -42t43 -101t-42.5 -100t-105.5 -41q-59 0 -101 41.5t-42 99.5z" />
<glyph unicode="/" horiz-adv-x="925" d="M-12 20l649 1403q2 3 8 7t10 4h240q11 0 15.5 -7t0.5 -16l-655 -1403q-5 -10 -18 -10h-234q-11 0 -15.5 6.5t-0.5 15.5z" />
<glyph unicode="0" horiz-adv-x="1157" d="M143 393v647q0 98 36.5 178.5t97 131t136.5 77.5t158 27q81 0 157 -27t137 -77.5t97.5 -131t36.5 -178.5v-647q0 -80 -24 -148t-65.5 -116t-96 -82t-116 -50.5t-126.5 -16.5q-82 0 -157.5 26.5t-136.5 76.5t-97.5 130.5t-36.5 179.5zM418 383q0 -74 45.5 -116t107.5 -42 q63 0 108.5 42t45.5 116v674q0 73 -46 114t-108 41q-63 0 -108 -40.5t-45 -114.5v-674z" />
<glyph unicode="1" horiz-adv-x="679" d="M-25 1237q-7 14 9 20l325 177h205q18 0 18 -17v-1401q0 -16 -18 -16h-235q-19 0 -19 16v1110q-55 -17 -182 -67q-18 -4 -25 10z" />
<glyph unicode="2" horiz-adv-x="1003" d="M57 16v215l506 699q49 66 49 129q0 55 -36.5 91t-90.5 36q-62 0 -107.5 -39t-45.5 -115q0 -5 -6 -9.5t-15 -4.5h-219q-8 0 -14 4.5t-6 9.5q0 120 42.5 212.5t137.5 150t233 57.5q107 0 201 -48t152.5 -136t58.5 -195q0 -138 -102 -278l-400 -529h500q9 0 14.5 -5t5.5 -11 v-234q0 -6 -5.5 -11t-14.5 -5h-817q-9 0 -15 5t-6 11z" />
<glyph unicode="3" horiz-adv-x="1009" d="M43 403q0 6 5.5 11.5t14.5 5.5h232q7 0 12.5 -5.5t5.5 -11.5q0 -71 51 -115t119 -44q87 0 137 59t50 139q0 94 -52.5 155.5t-140.5 68.5h-192q-12 0 -18.5 7.5t-0.5 16.5l285 486h-440q-9 0 -15 5t-6 11v225q0 6 6 11.5t15 5.5h823q12 0 18 -8t0 -17l-303 -532 q142 -41 219.5 -159.5t77.5 -291.5q0 -92 -25.5 -167t-69.5 -126t-103.5 -86t-125.5 -51t-139 -16q-183 0 -311.5 117t-128.5 306z" />
<glyph unicode="4" horiz-adv-x="1054" d="M49 440v226l584 761q7 7 14 7h234q9 0 14.5 -5.5t5.5 -11.5v-1401q0 -6 -5.5 -11t-14.5 -5h-234q-7 0 -12.5 5t-5.5 11v408h-559q-9 0 -15 5t-6 11zM322 662h309v389z" />
<glyph unicode="5" horiz-adv-x="1026" d="M72 410q0 6 5.5 11t14.5 5h232q9 0 14.5 -5t5.5 -11q0 -78 44 -119t112 -41q82 0 129 56.5t47 135.5q0 97 -44.5 158.5t-131.5 67.5h-398q-9 0 -14.5 5t-5.5 11v733q0 6 5.5 11.5t14.5 5.5h752q9 0 14.5 -5.5t5.5 -11.5v-217q0 -6 -5.5 -11t-14.5 -5h-498v-277h144 q226 0 337 -127t111 -352q0 -135 -63.5 -237.5t-164 -153.5t-220.5 -51q-186 0 -307 112t-121 312z" />
<glyph unicode="6" horiz-adv-x="966" d="M47 414q0 71 21 145l303 864q4 11 16 11h250q9 0 14 -7t2 -16l-207 -588q18 6 74 6q112 0 200 -61t132.5 -156t44.5 -204q0 -175 -126.5 -299.5t-303.5 -124.5q-124 0 -221 59t-148 156.5t-51 214.5zM301 406q0 -72 49.5 -123.5t118.5 -51.5q71 0 121.5 51.5t50.5 123.5 t-51 124t-121 52q-68 0 -118 -52t-50 -124z" />
<glyph unicode="7" horiz-adv-x="892" d="M20 1192v225q0 6 6 11.5t15 5.5h838q11 0 16.5 -7t1.5 -16l-528 -1401q-3 -10 -17 -10h-250q-9 0 -14.5 7t-1.5 16l434 1153h-479q-9 0 -15 5t-6 11z" />
<glyph unicode="8" horiz-adv-x="997" d="M59 416q0 81 40.5 165t101.5 138q-63 55 -102.5 136.5t-39.5 162.5q0 84 24 155.5t65.5 122t96 86t116 53t126.5 17.5t127.5 -17.5t118 -53t97 -86t66 -122t24.5 -155.5q0 -85 -41 -167.5t-109 -133.5q69 -57 109.5 -137.5t40.5 -163.5q0 -105 -37 -190t-99 -137.5 t-138.5 -80.5t-158.5 -28t-157 28t-136.5 80.5t-98 137.5t-36.5 190zM322 1018q0 -72 48 -122t117 -50t118.5 50t49.5 122q0 86 -50 134t-118 48t-116.5 -48t-48.5 -134zM328 416q0 -84 47 -131t112 -47t113.5 47t48.5 131q0 70 -47.5 122t-114.5 52q-65 0 -112 -52 t-47 -122z" />
<glyph unicode="9" horiz-adv-x="995" d="M49 1026q0 174 126.5 299t301.5 125q187 0 304.5 -125t117.5 -305q0 -72 -22 -148l-302 -862q-3 -10 -18 -10h-248q-10 0 -15.5 7t-2.5 16l209 587q-20 -6 -74 -6q-112 0 -200 61t-132.5 156.5t-44.5 204.5zM309 1028q0 -71 48.5 -121.5t117.5 -50.5q67 0 116.5 50.5 t49.5 121.5q0 70 -49 120t-117 50q-69 0 -117.5 -49.5t-48.5 -120.5z" />
<glyph unicode=":" horiz-adv-x="368" d="M35 129q0 59 42.5 101t100.5 42q62 0 105 -42t43 -101t-42.5 -100t-105.5 -41q-59 0 -101 41.5t-42 99.5zM35 713q0 59 42.5 101t100.5 42q62 0 105 -42t43 -101t-42.5 -100.5t-105.5 -41.5q-59 0 -101 42t-42 100z" />
<glyph unicode=";" horiz-adv-x="370" d="M23 125q0 57 42 98t101 41q83 0 122.5 -44t39.5 -114q0 -80 -45.5 -167t-106.5 -125q-10 -6 -20.5 -1.5t-10.5 15.5v156q-52 6 -87 46.5t-35 94.5zM35 713q0 59 42.5 101t100.5 42q62 0 105 -42t43 -101t-42.5 -100.5t-105.5 -41.5q-59 0 -101 42t-42 100z" />
<glyph unicode="&#x3c;" horiz-adv-x="714" d="M27 700q0 8 6 13l440 467q13 10 27 0l135 -140q13 -10 0 -20l-301 -320l301 -313q6 -5 6 -11t-6 -11l-135 -142q-14 -7 -27 0l-440 465q-6 4 -6 12z" />
<glyph unicode="=" horiz-adv-x="874" d="M59 317v203q0 6 6 11.5t15 5.5h700q8 0 13.5 -5.5t5.5 -11.5v-203q0 -5 -5.5 -9.5t-13.5 -4.5h-700q-9 0 -15 4.5t-6 9.5zM59 674v200q0 6 6 11.5t15 5.5h700q8 0 13.5 -5.5t5.5 -11.5v-200q0 -5 -5.5 -10t-13.5 -5h-700q-8 0 -14.5 5t-6.5 10z" />
<glyph unicode="&#x3e;" horiz-adv-x="708" d="M60 376q0 6 6 11l301 313l-301 320q-13 10 0 20l135 140q14 10 28 0l441 -467q6 -5 6 -13t-6 -12l-441 -465q-14 -7 -28 0l-135 142q-6 5 -6 11z" />
<glyph unicode="?" horiz-adv-x="1003" d="M43 1051q0 175 123.5 289t304.5 114q195 0 318.5 -115t123.5 -323q0 -128 -95.5 -234.5t-229.5 -144.5v-234q0 -5 -6 -9.5t-15 -4.5h-211q-8 0 -14 4.5t-6 9.5v424q0 17 22 17q64 -4 114.5 5t81 26.5t50.5 42.5t27.5 49t7.5 49q0 172 -168 172q-67 0 -111.5 -37 t-44.5 -100q0 -6 -5.5 -11.5t-14.5 -5.5h-232q-9 0 -14.5 5.5t-5.5 11.5zM313 137q0 68 46.5 108t109.5 40t108.5 -39t45.5 -109q0 -67 -47 -106t-111 -39q-62 0 -107 38.5t-45 106.5z" />
<glyph unicode="@" horiz-adv-x="1832" d="M-33 717q0 148 53 282t147.5 235t235.5 160.5t306 59.5q149 0 283 -51t236 -143.5t162 -233t60 -309.5v-350q0 -6 -5.5 -11.5t-14.5 -5.5h-721q-155 0 -263 107t-108 260q0 151 108 258.5t263 107.5q152 0 261 -107.5t109 -258.5q0 -90 -28 -142h129v142 q0 146 -66.5 257.5t-172.5 167.5t-232 56q-111 0 -203 -40t-152 -107t-92.5 -153.5t-32.5 -180.5q0 -127 56 -236t167.5 -178.5t256.5 -69.5h700q9 0 15 -5t6 -11v-217q0 -6 -6 -11t-15 -5h-700q-166 0 -306.5 59t-235 159.5t-147.5 233.5t-53 281zM584 717q0 -54 37 -91.5 t88 -37.5t88 37.5t37 91.5t-37 91.5t-88 37.5t-88 -37.5t-37 -91.5z" />
<glyph unicode="A" horiz-adv-x="1167" d="M6 23l559 1441q5 10 19 10t18 -10l559 -1441q4 -9 -0.5 -16t-15.5 -7h-254q-14 0 -17 10l-59 152h-465l-55 -152q-3 -10 -19 -10h-251q-12 0 -18 7t-1 16zM438 403h289l-143 431z" />
<glyph unicode="B" horiz-adv-x="1234" d="M145 16v1401q0 6 6 11.5t15 5.5h467q10 0 27.5 -0.5t68 -7.5t96 -20.5t101.5 -44t96.5 -72t68 -110.5t27.5 -155q0 -118 -54.5 -194t-143.5 -113q64 -22 109.5 -61t66 -78.5t31.5 -76.5t11 -60l1 -23q0 -82 -23.5 -148.5t-59.5 -109t-86.5 -74t-96.5 -47.5t-98.5 -25.5 t-82.5 -11.5t-59 -2h-467q-9 0 -15 5t-6 11zM418 262h215q39 0 75 6.5t73.5 22.5t60 50.5t22.5 82.5t-24 81.5t-58 48t-67.5 21.5t-57.5 7h-24h-215v-320zM418 850h215q4 0 12 0.5t29.5 3.5t41.5 8.5t44.5 17t42 27.5t29.5 42.5t12 58.5q0 35 -11.5 63.5t-30 45.5t-41.5 30 t-45.5 18.5t-41 8.5t-30.5 4h-11h-215v-328z" />
<glyph unicode="C" horiz-adv-x="1421" d="M98 717q0 160 54 297t149 233.5t229.5 151.5t290.5 55q148 0 279.5 -55.5t228.5 -155.5q6 -5 6 -12t-6 -12l-164 -164q-14 -11 -28 0q-133 133 -316 133q-204 0 -324 -131.5t-120 -339.5q0 -213 127 -342t317 -129q183 0 316 133q14 10 28 0l164 -166q6 -5 6 -12.5 t-6 -12.5q-97 -98 -228.5 -153t-279.5 -55t-280 52.5t-230.5 146.5t-155.5 233.5t-57 304.5z" />
<glyph unicode="D" horiz-adv-x="1355" d="M145 16v1401q0 6 6 11.5t15 5.5h233q64 0 121.5 -3.5t125.5 -13.5t126.5 -27t120.5 -45.5t111.5 -66.5t94.5 -92.5t75 -121t47.5 -155t17.5 -192.5q0 -127 -28.5 -232t-75.5 -178t-115 -129t-140.5 -89t-159 -53.5t-162.5 -28t-159 -7.5h-233q-9 0 -15 5t-6 11zM420 264 q28 0 64 -2h15q29 0 60 5q39 6 79 13t80 24.5t76 39.5t67 57.5t53.5 79t35.5 104t13 132.5q0 124 -40.5 216t-114.5 145t-172 76q-77 18 -168 18q-24 0 -48 -1v-907z" />
<glyph unicode="E" horiz-adv-x="1204" d="M145 16v1401q0 6 6 11.5t15 5.5h915q9 0 15 -5.5t6 -11.5v-227q0 -6 -6 -11t-15 -5h-661v-324h563q7 0 12.5 -5t5.5 -11v-228q0 -6 -5.5 -11t-12.5 -5h-563v-324h680q9 0 14.5 -5t5.5 -11v-234q0 -6 -5.5 -11t-14.5 -5h-934q-9 0 -15 5t-6 11z" />
<glyph unicode="F" horiz-adv-x="1187" d="M145 16v1401q0 6 6 11.5t15 5.5h934q9 0 14.5 -5.5t5.5 -11.5v-233q0 -6 -5.5 -11.5t-14.5 -5.5h-680v-323h563q7 0 12.5 -5.5t5.5 -11.5v-227q0 -6 -5.5 -11t-12.5 -5h-563v-568q0 -6 -6 -11t-15 -5h-233q-9 0 -15 5t-6 11z" />
<glyph unicode="G" horiz-adv-x="1583" d="M104 717q0 157 57 294.5t154 234t230 152.5t280 56q148 0 279.5 -55.5t228.5 -155.5q6 -5 6 -12t-6 -12l-164 -164q-15 -11 -26 0q-63 63 -145 98t-173 35q-191 0 -318.5 -127.5t-127.5 -343.5q0 -120 34.5 -212t96.5 -147.5t141 -83.5t174 -28q194 0 330 149v187h-231 q-21 0 -21 14v217q0 6 6 11t15 5h487q7 0 13 -5t6 -11v-803q0 -6 -6 -11t-13 -5h-205q-8 0 -14 4t-6 10l-8 133q-140 -161 -383 -161q-146 0 -271.5 50t-219 142t-147 232.5t-53.5 312.5z" />
<glyph unicode="H" horiz-adv-x="1404" d="M150 16v1401q0 6 5.5 11.5t14.5 5.5h233q9 0 15 -5.5t6 -11.5v-565h543v565q0 6 5.5 11.5t14.5 5.5h234q9 0 14.5 -5.5t5.5 -11.5v-1401q0 -6 -5.5 -11t-14.5 -5h-234q-9 0 -14.5 5t-5.5 11v568h-543v-568q0 -6 -6 -11t-15 -5h-233q-9 0 -14.5 5t-5.5 11z" />
<glyph unicode="I" horiz-adv-x="716" d="M49 16v213q0 6 6 11.5t15 5.5h145v942h-137q-9 0 -15 5t-6 11v213q0 6 6 11.5t15 5.5h547q9 0 14.5 -5.5t5.5 -11.5v-213q0 -6 -5.5 -11t-14.5 -5h-136v-942h144q9 0 14.5 -5.5t5.5 -11.5v-213q0 -6 -5.5 -11t-14.5 -5h-563q-9 0 -15 5t-6 11z" />
<glyph unicode="J" horiz-adv-x="831" d="M51 16v234q0 6 6 11t15 5h176q44 0 76.5 16.5t47.5 39.5t23.5 46t9.5 40l1 16v766h-234q-9 0 -14.5 5t-5.5 11v213q0 6 5.5 11.5t14.5 5.5h487q9 0 14 -5t5 -12v-995q0 -87 -23.5 -157t-61.5 -113t-84 -74.5t-92 -46t-84 -23t-61 -9.5l-24 -1h-176q-9 0 -15 5t-6 11z" />
<glyph unicode="K" horiz-adv-x="1323" d="M145 16v1401q0 6 6 11.5t15 5.5h235q7 0 13 -5.5t6 -11.5v-651l538 661q7 7 17 7h293q14 0 19.5 -9t-3.5 -18l-571 -702l575 -678q9 -9 3.5 -18t-19.5 -9h-307q-11 0 -17 6l-418 516q-8 -9 -47.5 -55.5t-62.5 -69.5v-381q0 -6 -6 -11t-13 -5h-235q-9 0 -15 5t-6 11z" />
<glyph unicode="L" horiz-adv-x="1026" d="M143 16v1401q0 6 6 11.5t15 5.5h235q7 0 13 -5.5t6 -11.5v-1151h500q9 0 14.5 -5t5.5 -11v-234q0 -6 -5.5 -11t-14.5 -5h-754q-9 0 -15 5t-6 11z" />
<glyph unicode="M" horiz-adv-x="1875" d="M147 16v1403q0 7 5.5 12t13.5 5h240q12 0 18 -11l514 -1052l492 1052q6 11 18 11h238q9 0 14.5 -5.5t5.5 -11.5v-1403q0 -6 -5.5 -11t-14.5 -5h-234q-9 0 -14.5 5t-5.5 11v787l-365 -735q-2 -3 -7.5 -7t-8.5 -4h-222q-4 0 -10 4t-8 7l-389 753v-805q0 -6 -6 -11t-15 -5 h-235q-19 0 -19 16z" />
<glyph unicode="N" horiz-adv-x="1519" d="M147 16v1401q0 6 6 11.5t13 5.5h237q13 0 17 -7l661 -944v934q0 6 6 11.5t15 5.5h231q9 0 15 -5.5t6 -11.5v-1401q0 -6 -6 -11t-15 -5h-235q-14 0 -17 6l-659 944v-934q0 -6 -6 -11t-15 -5h-235q-7 0 -13 5t-6 11z" />
<glyph unicode="O" horiz-adv-x="1306" d="M100 918q0 144 72.5 267.5t197.5 196t271 72.5t271 -72.5t197.5 -196t72.5 -267.5q0 -145 -73 -269t-197.5 -196t-270.5 -72t-270.5 72t-197.5 196t-73 269zM154 16v232q0 6 5.5 11t14.5 5h924q9 0 14.5 -5t5.5 -11v-232q0 -6 -5.5 -11t-14.5 -5h-924q-9 0 -14.5 5 t-5.5 11zM373 918q0 -115 78.5 -194t189.5 -79q113 0 190.5 79t77.5 194q0 114 -78 193t-190 79q-111 0 -189.5 -79t-78.5 -193z" />
<glyph unicode="P" horiz-adv-x="1193" d="M145 16v818q0 6 6 11t15 5h190q-41 62 -114 178.5t-97 153.5v235q0 6 6 11.5t15 5.5h467q10 0 27.5 -1t68 -9.5t96 -23t101.5 -46t96.5 -74.5t68 -113t27.5 -157t-26.5 -157.5t-69.5 -113.5t-94.5 -75t-103.5 -46.5t-95 -23t-69 -9.5l-27 -1h-213v-568q0 -6 -6 -11 t-15 -5h-233q-9 0 -15 5t-6 11zM453 1167l198 -315q42 0 84 14t76.5 52t34.5 92q0 157 -213 157h-180z" />
<glyph unicode="Q" horiz-adv-x="1683" d="M102 721q0 148 53.5 282t147.5 233.5t230 158.5t292 59q155 0 291 -59t230 -158.5t148 -233.5t54 -282q0 -109 -32 -219.5t-89 -196.5l140 -149q6 -4 6 -12t-6 -11l-170 -162q-15 -11 -29 0l-133 140q-184 -129 -410 -129q-148 0 -281.5 56.5t-230.5 154t-154 235.5 t-57 293zM377 721q0 -207 129.5 -340t318.5 -133q114 0 226 63q-102 112 -303 332.5t-304 333.5q-31 -52 -49 -121.5t-18 -134.5zM649 1151l582 -641q43 97 43 211q0 123 -60 230.5t-164 172t-225 64.5q-91 0 -176 -37z" />
<glyph unicode="R" horiz-adv-x="1253" d="M147 16v818q0 6 6 11t15 5h190q-35 55 -105.5 166.5t-105.5 165.5v235q0 6 6 11.5t15 5.5h467q6 0 17 -0.5t44 -4.5t65.5 -10.5t76.5 -21.5t81.5 -35.5t76 -53.5t65.5 -73.5t44 -98.5t17 -126q0 -303 -301 -396l369 -589q6 -9 1.5 -17t-15.5 -8h-275q-14 0 -18 8 l-361 576h-100v-568q0 -6 -6 -11t-15 -5h-233q-9 0 -15 5t-6 11zM463 1167l199 -315q32 1 62.5 8.5t59.5 24.5t46.5 49t17.5 76q0 157 -213 157h-172z" />
<glyph unicode="S" horiz-adv-x="1112" d="M94 403q0 6 6 11.5t15 5.5h233q7 0 14 -5.5t7 -11.5q3 -74 56 -115.5t128 -41.5q76 0 130 46t54 118q0 77 -57.5 126t-126.5 52q-113 0 -219 49q-116 54 -178 149.5t-62 223.5q0 100 38.5 185t102.5 141t146.5 87t171.5 31q191 0 320.5 -117.5t132.5 -302.5q0 -5 -6 -9.5 t-15 -4.5h-231q-7 0 -14 4.5t-7 9.5q-3 75 -53.5 114.5t-126.5 39.5q-79 0 -131.5 -46.5t-52.5 -131.5q0 -76 54.5 -119t129.5 -43q113 0 217 -49q116 -53 178 -155.5t62 -233.5q0 -100 -38 -183t-102 -136t-146 -82t-171 -29q-198 5 -327 116t-132 307z" />
<glyph unicode="T" horiz-adv-x="917" d="M25 1204v213q0 6 5.5 11.5t14.5 5.5h821q9 0 15 -5.5t6 -11.5v-213q0 -6 -6 -11t-15 -5h-274v-1172q0 -6 -6 -11t-15 -5h-231q-9 0 -15 5t-6 11v1172h-274q-9 0 -14.5 5t-5.5 11z" />
<glyph unicode="U" horiz-adv-x="1515" d="M147 580v837q0 6 6 11.5t13 5.5h1165q9 0 15 -5.5t6 -11.5v-837q0 -21 -2.5 -52.5t-20.5 -105t-49 -135.5q-75 -148 -211.5 -227.5t-318.5 -79.5q-183 0 -320.5 79t-210.5 228q-31 62 -49 135.5t-20.5 105t-2.5 52.5zM420 580q2 -93 47 -179q82 -155 283 -155 q200 0 282 155q20 38 31.5 85t13.5 67t2 29v606h-659v-608z" />
<glyph unicode="V" horiz-adv-x="1177" d="M10 1411q-4 9 2 16t17 7h1120q9 0 14.5 -7t1.5 -16l-557 -1458q-4 -11 -18 -11t-19 11zM381 1180l209 -574l207 574h-416z" />
<glyph unicode="W" horiz-adv-x="2076" d="M25 1411q-4 9 1.5 16t16.5 7h252q14 0 18 -11l287 -776l295 776q4 11 18 11h252q15 0 19 -11l295 -776l288 776q4 11 19 11h252q12 0 17.5 -7t0.5 -16l-561 -1456q-5 -11 -18 -11t-17 11l-422 1104l-420 -1104q-4 -11 -17.5 -11t-16.5 11z" />
<glyph unicode="X" horiz-adv-x="1380" d="M24.5 9q-4.5 9 2.5 18l491 690q-82 114 -245.5 345t-245.5 345q-7 9 -2.5 18t16.5 9h287q12 0 16 -7l342 -477l340 477q4 7 16 7h287q13 0 19 -9t-2 -18l-494 -690q92 -126 259.5 -362t234.5 -328q8 -9 2 -18t-19 -9h-287q-13 0 -16 6l-340 477l-342 -477q-3 -6 -16 -6 h-287q-12 0 -16.5 9z" />
<glyph unicode="Y" horiz-adv-x="1320" d="M-10.5 1425q5.5 9 18.5 9h285q13 0 16 -7l342 -477l342 477q3 7 15 7h286q13 0 19 -9t-2 -18l-523 -733v-658q0 -6 -5.5 -11t-14.5 -5h-233q-9 0 -15 5t-6 11v658q-93 133 -269.5 379.5t-252.5 353.5q-8 9 -2.5 18z" />
<glyph unicode="Z" horiz-adv-x="972" d="M49 1184v233q0 6 6 11.5t15 5.5h815q12 0 17.5 -7t0.5 -16l-459 -1145h443q9 0 14.5 -5t5.5 -11v-234q0 -6 -5.5 -11t-14.5 -5h-815q-12 0 -18 7t-1 16l459 1144h-442q-9 0 -15 5.5t-6 11.5z" />
<glyph unicode="[" horiz-adv-x="704" d="M141 16v1401q0 6 6 11.5t13 5.5h467q9 0 14.5 -5.5t5.5 -11.5v-233q0 -6 -5.5 -11.5t-14.5 -5.5h-211v-901h211q9 0 14.5 -5t5.5 -11v-234q0 -6 -5.5 -11t-14.5 -5h-467q-7 0 -13 5t-6 11z" />
<glyph unicode="\" horiz-adv-x="929" d="M-12 1411q-4 9 0.5 16t15.5 7h240q12 0 18 -11l649 -1403q4 -9 -0.5 -15.5t-15.5 -6.5h-240q-13 0 -18 10z" />
<glyph unicode="]" horiz-adv-x="720" d="M63 16v234q0 6 6 11t15 5h213v901h-213q-9 0 -15 5.5t-6 11.5v233q0 6 6 11.5t15 5.5h467q18 0 18 -17v-1401q0 -16 -18 -16h-467q-9 0 -15 5t-6 11z" />
<glyph unicode="^" horiz-adv-x="1216" d="M-14 1009.5q0 7.5 6 12.5l430 408q6 4 14 4t13 -4l432 -408q6 -5 6 -12.5t-6 -12.5l-131 -123q-14 -11 -29 0l-285 275q-49 -46 -143 -137.5t-143 -137.5q-14 -11 -29 0l-129 123q-6 5 -6 12.5z" />
<glyph unicode="_" horiz-adv-x="1103" d="M66 14q0 6 5.5 11.5t14.5 5.5h926q9 0 14.5 -5.5t5.5 -11.5v-192q0 -6 -5.5 -11.5t-14.5 -5.5h-926q-9 0 -14.5 5.5t-5.5 11.5v192z" />
<glyph unicode="`" horiz-adv-x="542" d="M21 1306q-3 7 2 13l106 170q10 14 29 6l358 -207q8 -3 10 -9.5t-2 -12.5l-96 -162q-10 -14 -29 -6l-368 200q-7 1 -10 8z" />
<glyph unicode="a" horiz-adv-x="1169" d="M6 23l559 1441q5 10 19 10t18 -10l559 -1441q4 -9 -0.5 -16t-15.5 -7h-254q-14 0 -17 10l-59 152h-465l-55 -152q-3 -10 -19 -10h-251q-12 0 -18 7t-1 16zM438 403h289l-143 431z" />
<glyph unicode="b" horiz-adv-x="1234" d="M147 16v1401q0 6 6 11.5t13 5.5h463q10 0 27.5 -0.5t67.5 -7.5t95.5 -20t101.5 -43t96 -71.5t67.5 -110t27.5 -153.5q0 -115 -54.5 -189t-142.5 -110q62 -22 107.5 -62t65 -82t30.5 -81t12 -64v-24q0 -82 -23 -148t-58.5 -108.5t-85.5 -74t-95 -47t-97.5 -25t-82.5 -11.5 t-59 -2h-463q-7 0 -13 5t-6 11zM418 262h211q39 0 75 7t73.5 23t60 50t22.5 82q0 35 -11 63t-26.5 45.5t-39.5 30t-43.5 18.5t-45.5 9t-37.5 3.5t-27.5 0.5h-211v-332zM418 844h211q17 0 37.5 2.5t53 13t58 27t44 50t18.5 77.5q0 48 -21.5 81.5t-53 47.5t-62.5 21.5t-53 7.5 l-21 -1h-211v-327z" />
<glyph unicode="c" horiz-adv-x="1421" d="M100 711q0 212 91 381.5t255 265.5t371 96q147 0 277 -54.5t227 -152.5q6 -5 6 -12t-6 -12l-162 -162q-15 -11 -29 0q-134 131 -313 131q-134 0 -235 -64t-153 -172.5t-52 -244.5q0 -106 34.5 -194.5t94 -148t140 -92t171.5 -32.5q182 0 313 131q14 11 29 0l162 -164 q6 -5 6 -13t-6 -12q-97 -97 -227.5 -151.5t-276.5 -54.5q-147 0 -278 52t-228 145.5t-154 232t-57 301.5z" />
<glyph unicode="d" horiz-adv-x="1355" d="M147 16v1401q0 6 6 11.5t15 5.5h231q83 0 156 -6t160 -25t157.5 -50.5t139.5 -86.5t115.5 -127.5t75 -179.5t28.5 -238q0 -126 -28 -231t-74.5 -178t-114 -129.5t-139 -90.5t-157 -55t-161.5 -29t-158 -8h-231q-9 0 -15 5t-6 11zM420 256q22 -1 43 -1t41 1q42 2 97.5 12 t103 28.5t95.5 54.5t82 84t55 121.5t21 164.5q0 111 -26.5 194.5t-73 135.5t-116 83t-147.5 41q-52 7 -112 7q-30 0 -63 -2v-924z" />
<glyph unicode="e" horiz-adv-x="1204" d="M147 16v1401q0 6 6 11.5t13 5.5h928q9 0 14.5 -5.5t5.5 -11.5v-227q0 -6 -5.5 -11t-14.5 -5h-676v-332h559q18 0 18 -17v-223q0 -16 -18 -16h-559v-328h676q9 0 14.5 -5t5.5 -11v-226q0 -6 -5.5 -11t-14.5 -5h-928q-7 0 -13 5t-6 11z" />
<glyph unicode="f" horiz-adv-x="1187" d="M147 16v1389q0 6 6 11t13 5h928q9 0 14.5 -5t5.5 -11v-231q0 -6 -5.5 -11.5t-14.5 -5.5h-676v-315h559q18 0 18 -17v-229q0 -16 -18 -16h-559v-564q0 -16 -19 -16h-233q-7 0 -13 5t-6 11z" />
<glyph unicode="g" horiz-adv-x="1583" d="M106 717q0 157 57 294.5t153.5 234t229 152.5t279.5 56q149 0 279.5 -54.5t228.5 -154.5q6 -5 6 -12t-6 -12l-164 -164q-14 -11 -28 0q-62 62 -144 97.5t-172 35.5q-190 0 -317 -128t-127 -345q0 -121 34.5 -213.5t95.5 -148t140 -83.5t174 -28q97 0 184.5 39.5 t151.5 109.5v197h-356q-9 0 -15 5t-6 11v207q0 6 6 11t15 5h604q9 0 15 -5t6 -11v-801q0 -6 -6 -11t-15 -5h-205q-18 0 -18 14l-8 125q-158 -158 -381 -158q-146 0 -271.5 50t-219 142.5t-147 233.5t-53.5 314z" />
<glyph unicode="h" horiz-adv-x="1404" d="M152 16v1401q0 6 5.5 11.5t14.5 5.5h231q9 0 15 -5.5t6 -11.5v-559h537v559q0 6 5.5 11.5t14.5 5.5h233q7 0 13 -5.5t6 -11.5v-1401q0 -6 -6 -11t-13 -5h-233q-9 0 -14.5 5t-5.5 11v582h-537v-582q0 -6 -6 -11t-15 -5h-231q-9 0 -14.5 5t-5.5 11z" />
<glyph unicode="i" horiz-adv-x="573" d="M147 16v1401q0 6 6 11.5t15 5.5h231q9 0 15 -5.5t6 -11.5v-1401q0 -6 -6 -11t-15 -5h-231q-9 0 -15 5t-6 11z" />
<glyph unicode="j" horiz-adv-x="831" d="M53 16v232q0 6 6 11t15 5h174q44 0 76 16t46.5 39t22.5 46t9 39l1 16v997q0 7 5.5 12t13.5 5h233q7 0 13 -5.5t6 -11.5v-997q0 -86 -23.5 -155.5t-61 -112t-83 -74t-91 -46t-83 -22.5t-60.5 -9l-24 -1h-174q-9 0 -15 5t-6 11z" />
<glyph unicode="k" horiz-adv-x="1323" d="M147 16v1401q0 6 6 11.5t15 5.5h233q9 0 15 -5.5t6 -11.5v-663l536 673q7 7 17 7h291q14 0 19.5 -9t-3.5 -18l-569 -702l573 -678q9 -9 3.5 -18t-19.5 -9h-305q-11 0 -17 6l-418 516q-11 -13 -48.5 -58t-59.5 -67v-381q0 -6 -6 -11t-15 -5h-233q-9 0 -15 5t-6 11z" />
<glyph unicode="l" horiz-adv-x="1026" d="M145 16v1401q0 6 6 11.5t15 5.5h231q9 0 15 -5.5t6 -11.5v-1153h493q9 0 15 -5t6 -11v-232q0 -6 -6 -11t-15 -5h-745q-9 0 -15 5t-6 11z" />
<glyph unicode="m" horiz-adv-x="1875" d="M150 16v1401q0 6 5.5 11.5t14.5 5.5h236q12 0 18 -11l510 -1054l487 1054q2 3 8.5 7t10.5 4h235q9 0 15 -5.5t6 -11.5v-1401q0 -6 -6 -11t-15 -5h-231q-9 0 -15 5t-6 11v807l-360 -757q-2 -3 -8.5 -7t-10.5 -4h-219q-11 0 -16 11l-387 774v-824q0 -6 -6 -11t-15 -5h-231 q-9 0 -14.5 5t-5.5 11z" />
<glyph unicode="n" horiz-adv-x="1519" d="M150 16v1403q0 17 18 17h235q12 0 15 -6l657 -963v952q0 6 6 11.5t15 5.5h229q9 0 15 -5.5t6 -11.5v-1403q0 -6 -6 -11t-15 -5h-233q-14 0 -17 6l-655 955v-945q0 -6 -6 -11t-13 -5h-233q-18 0 -18 16z" />
<glyph unicode="o" horiz-adv-x="1632" d="M94 719q0 112 27.5 217.5t86 199.5t141 165t200 112t256.5 41q137 0 253 -41t198.5 -112t140.5 -165t86 -199.5t28 -217.5t-28 -218t-86 -200t-140.5 -165t-198.5 -112.5t-253 -41.5q-139 0 -256.5 41.5t-200 112.5t-141 165.5t-86 200t-27.5 217.5zM373 715 q0 -91 27.5 -175t79.5 -151.5t136 -108t189 -40.5q103 0 186.5 40.5t136 108t80 151.5t27.5 175q0 92 -27.5 176.5t-80 152.5t-136 109t-186.5 41q-105 0 -189 -41t-136 -109t-79.5 -152.5t-27.5 -176.5z" />
<glyph unicode="p" horiz-adv-x="1187" d="M147 12v1405q0 6 6 11.5t13 5.5h465q15 0 32 -1t52 -5t67.5 -11.5t74 -23.5t76.5 -37t70 -54.5t59 -74.5t39 -99.5t15 -126.5t-16 -125.5t-41 -98.5t-61.5 -74t-72 -53.5t-78 -35.5t-74.5 -22.5t-67 -11.5t-49 -4.5t-26 -0.5h-213v-563q0 -16 -19 -16h-233q-7 0 -13 5 t-6 11zM418 840h213q15 0 29 1t42 5.5t50 15t44.5 27t35 45.5t12.5 67q0 45 -19.5 78.5t-45 50t-59.5 26t-53.5 11.5t-35.5 2h-213v-329z" />
<glyph unicode="q" horiz-adv-x="1693" d="M100 719q0 147 50.5 280t140.5 234t226.5 161t297.5 60q155 0 290 -60t227 -160.5t145 -234.5t53 -280q0 -109 -33 -225t-90 -203l137 -137q6 -5 6 -12.5t-6 -12.5l-162 -162q-14 -11 -28 0l-135 135q-188 -122 -404 -122q-157 0 -292.5 60.5t-227 161.5t-143.5 235.5 t-52 281.5zM373 719q0 -125 53.5 -233t156 -176t232.5 -68q103 0 209 53q-24 23 -67.5 67.5t-65.5 65.5q-6 4 -6 12t6 13l164 163q14 10 28 0l127 -127q50 102 50 230q0 94 -29.5 178.5t-84 150.5t-140.5 105t-191 39q-102 0 -187 -39t-140 -104.5t-85 -150.5t-30 -179z" />
<glyph unicode="r" horiz-adv-x="1226" d="M145 16v1401q0 6 6 11.5t13 5.5h463q21 0 38.5 -0.5t55 -4.5t69 -11.5t73 -22.5t74.5 -35.5t67 -53.5t56.5 -74t37 -98.5t14.5 -125.5q0 -154 -73 -248.5t-191 -136.5q47 -106 140.5 -305.5t135.5 -294.5q4 -9 -0.5 -16t-15.5 -7h-256q-13 0 -18 10l-263 570h-153v-564 q0 -6 -6 -11t-15 -5h-233q-7 0 -13 5t-6 11zM418 842h209q24 0 45.5 2t54.5 11.5t56 25.5t40 49t17 78t-18.5 78t-43.5 49t-58.5 25.5t-53.5 11.5t-39 2h-209v-332z" />
<glyph unicode="s" horiz-adv-x="1112" d="M96 401q0 15 21 15h231q8 0 14.5 -4.5t6.5 -10.5q3 -76 55 -116.5t127 -40.5t128.5 44.5t53.5 117.5q0 75 -57.5 125t-124.5 53q-113 0 -217 47q-114 54 -176 153.5t-62 227.5q0 100 38 184t101 139.5t145 86t171 30.5q190 0 317.5 -115.5t130.5 -298.5q0 -6 -5.5 -11 t-14.5 -5h-229q-8 0 -14.5 5t-6.5 11q-3 73 -53 112.5t-125 39.5q-79 0 -130.5 -45.5t-51.5 -132.5q0 -75 54.5 -123.5t127.5 -48.5q111 0 213 -47q115 -53 177.5 -156t62.5 -231q0 -100 -38 -182.5t-101.5 -134.5t-144.5 -80.5t-169 -28.5q-197 5 -324.5 115t-130.5 306z " />
<glyph unicode="t" horiz-adv-x="917" d="M27 1192v213q0 6 5.5 11t14.5 5h813q9 0 15 -5t6 -11v-213q0 -14 -21 -14h-272v-1162q0 -16 -19 -16h-231q-19 0 -19 16v1162h-272q-20 0 -20 14z" />
<glyph unicode="u" horiz-adv-x="1398" d="M147 461v944q0 6 6 11t15 5h231q9 0 15 -5t6 -11v-942q12 -103 87.5 -161t180.5 -58q70 0 129.5 23t99 74t39.5 120v944q0 6 6 11t15 5h233q7 0 13 -5t6 -11v-944q0 -149 -71.5 -259t-193 -166t-276.5 -56q-149 0 -271.5 57.5t-196 168.5t-73.5 255z" />
<glyph unicode="v" horiz-adv-x="1169" d="M14 1411q-4 9 1 16t16 7h250q14 0 18 -11l287 -800l286 800q4 11 19 11h250q12 0 17.5 -7t0.5 -16l-557 -1438q-4 -9 -17 -9t-18 9z" />
<glyph unicode="w" horiz-adv-x="2058" d="M20 1411q-4 9 2 16t17 7h250q14 0 18 -11l285 -798l289 798q4 11 16 11h258q15 0 19 -11l286 -798l289 798q4 11 18 11h250q12 0 17 -7t0 -16l-555 -1456q-5 -11 -18 -11t-17 11l-418 1108l-416 -1108q-4 -11 -18 -11t-19 11z" />
<glyph unicode="x" horiz-adv-x="1380" d="M26.5 9q-5.5 9 2.5 18l487 684q-81 113 -243.5 348.5t-243.5 347.5q-8 9 -2.5 18t18.5 9h283q12 0 16 -7l340 -485l336 485q4 7 16 7h285q12 0 17 -9t-1 -18l-489 -696q72 -100 236 -331t253 -353q6 -9 1 -18t-17 -9h-285q-13 0 -16 6l-336 473l-340 -473q-3 -6 -16 -6 h-283q-13 0 -18.5 9z" />
<glyph unicode="y" horiz-adv-x="1341" d="M12 1425q6 9 19 9h284q11 0 15 -7l340 -485l338 485q4 7 14 7h285q13 0 18.5 -9t-2.5 -18l-518 -737v-654q0 -6 -6 -11t-15 -5h-231q-9 0 -15 5t-6 11v654q-495 704 -518 737q-8 9 -2 18z" />
<glyph unicode="z" horiz-adv-x="1193" d="M-8.5 8q-5.5 8 0.5 17l698 1144h-622q-7 0 -13 5.5t-6 11.5v231q0 6 6 11.5t13 5.5h1067q12 0 17.5 -8t0.5 -17l-698 -1145h680q18 0 18 -16v-232q0 -16 -18 -16h-1127q-11 0 -16.5 8z" />
<glyph unicode="{" horiz-adv-x="708" d="M-47 716q0 10 12 15l248 123v563q0 6 5.5 11.5t14.5 5.5h392q18 0 18 -17v-233q0 -17 -18 -17h-138v-901h138q18 0 18 -16v-234q0 -16 -18 -16h-392q-9 0 -14.5 5t-5.5 11v564q-21 10 -110 54.5t-138 67.5q-12 4 -12 14z" />
<glyph unicode="|" horiz-adv-x="575" d="M127 16v1401q0 6 5.5 11.5t14.5 5.5h234q9 0 14.5 -5.5t5.5 -11.5v-1401q0 -6 -5.5 -11t-14.5 -5h-234q-9 0 -14.5 5t-5.5 11z" />
<glyph unicode="}" horiz-adv-x="737" d="M66 16v234q0 16 18 16h137v901h-137q-18 0 -18 17v233q0 17 18 17h391q9 0 15 -5.5t6 -11.5v-563q30 -15 114.5 -58t132.5 -65q12 -5 12 -15t-12 -14l-247 -122v-564q0 -6 -6 -11t-15 -5h-391q-18 0 -18 16z" />
<glyph unicode="~" horiz-adv-x="950" d="M41 596q18 117 88 175t174 58q99 0 203 -49h-2q2 -2 8 -2q60 -24 82 -24q42 0 68 55q3 5 10.5 8t13.5 2l195 -57q7 0 12 -6.5t2 -12.5q-37 -119 -101 -172t-155 -53q-95 0 -207 47l-31 13q-10 3 -26 8.5t-27.5 8.5t-21.5 3q-34 0 -50 -59q-3 -6 -11 -10t-15 -3l-193 54 q-19 4 -16 16z" />
<glyph unicode="&#xa1;" horiz-adv-x="565" d="M123 1286q0 61 44.5 104.5t108.5 43.5q63 0 108.5 -44t45.5 -104t-45.5 -105.5t-108.5 -45.5q-64 0 -108.5 45t-44.5 106zM139 0v993q0 6 6 11.5t15 5.5h233q9 0 15 -5.5t6 -11.5v-993q0 -6 -6 -11t-15 -5h-233q-9 0 -15 5t-6 11z" />
<glyph unicode="&#xa2;" horiz-adv-x="1187" d="M88 717q0 202 128.5 360.5t326.5 208.5v160q0 6 5.5 11t14.5 5h180q9 0 15 -5t6 -11v-148q191 -23 338 -163q7 -11 8 -26.5t-6 -23.5l-129 -129q-14 -13 -31.5 -11.5t-28.5 16.5q-65 62 -151 81v-653q87 21 154 88q26 23 65 -8l119 -121q7 -12 8 -26t-6 -23 q-140 -140 -340 -164v-121q0 -6 -6 -11t-15 -5h-180q-9 0 -14.5 5t-5.5 11v131q-198 50 -326.5 209t-128.5 363zM362 717q0 -103 48 -184t133 -121v610q-81 -44 -131 -125.5t-50 -179.5z" />
<glyph unicode="&#xa3;" horiz-adv-x="1212" d="M-2 502v246q0 14 20 14h197q30 81 43 106q57 119 145 221t195 177q68 43 145 76t135.5 50t114.5 27t81 12.5t34 2.5t14.5 -5.5t5.5 -11.5v-243q0 -6 -5.5 -11.5t-14.5 -5.5q-6 0 -21 -1t-54.5 -8.5t-80 -19.5t-96 -38t-104.5 -60q-144 -102 -232 -268h195q20 0 20 -14 v-246q0 -15 -20 -15h-289q-23 -133 -27 -211h707q9 0 14.5 -5t5.5 -11v-244q0 -6 -5.5 -11t-14.5 -5h-975q-9 0 -14.5 5t-5.5 11v121q0 185 28 350h-121q-20 0 -20 15z" />
<glyph unicode="&#xa5;" horiz-adv-x="1310" d="M-10.5 1425q5.5 9 18.5 9h285q13 0 16 -7l342 -485l342 485q3 7 15 7h286q13 0 19 -9t-2 -18l-432 -604h145q9 0 14.5 -5.5t5.5 -11.5v-186q0 -6 -5.5 -11t-14.5 -5h-236v-86h236q9 0 14.5 -5.5t5.5 -11.5v-180q0 -6 -5.5 -11t-14.5 -5h-236v-269q0 -6 -5.5 -11t-14.5 -5 h-233q-9 0 -15 5t-6 11v269h-244q-9 0 -14.5 5t-5.5 11v180q0 6 5.5 11.5t14.5 5.5h244v86h-246q-9 0 -14.5 5t-5.5 11v186q0 6 5.5 11.5t14.5 5.5h150q-69 97 -213 302.5t-213 301.5q-8 9 -2.5 18z" />
<glyph unicode="&#xa7;" horiz-adv-x="851" d="M76 287q0 6 5.5 11t14.5 5h170q9 0 15 -5t6 -11q0 -71 57 -94q35 -17 74 -17q41 0 80 19q51 25 51 92q0 72 -55 96q-37 16 -76 16q-8 0 -27 2t-59.5 11t-75.5 24q-81 42 -130 117t-50 164q0 128 84 215q-84 81 -84 213q0 91 48.5 164.5t131.5 113.5q35 16 75.5 25.5 t59.5 11.5t27 2q10 0 29.5 -2t59.5 -11.5t73 -25.5q84 -40 132 -113.5t48 -164.5q0 -6 -6 -11.5t-15 -5.5h-170q-9 0 -14.5 5.5t-5.5 11.5q0 70 -55 94q-18 9 -66 16l-10 2q-1 0 -3 -1t-3 -1q-54 -7 -72 -16h2q-55 -27 -55 -94q0 -73 57 -96q16 -7 34.5 -11.5t29.5 -5.5h10 q82 0 162 -37q87 -39 132.5 -112t47.5 -168q0 -128 -82 -213q82 -85 82 -215q0 -92 -48 -165.5t-132 -113.5q-33 -16 -73 -25.5t-59.5 -11.5t-29.5 -2q-8 0 -27 2t-59.5 11.5t-75.5 25.5q-83 40 -131.5 114t-48.5 165zM287 717q0 -68 57 -96q44 -17 74 -17q36 0 80 19 q51 25 51 94q0 66 -55 94q-44 16 -74 16q-34 0 -80 -18q-53 -27 -53 -92z" />
<glyph unicode="&#xa8;" horiz-adv-x="770" d="M16 1298q0 60 45 104t105 44q62 0 107.5 -44t45.5 -104t-45.5 -103.5t-107.5 -43.5q-60 0 -105 43.5t-45 103.5zM434 1298q0 60 45 104t107 44q61 0 106 -44t45 -104t-44.5 -103.5t-106.5 -43.5t-107 43.5t-45 103.5z" />
<glyph unicode="&#xa9;" horiz-adv-x="1417" d="M78 815q0 168 82 310t224.5 225.5t311.5 83.5q170 0 313 -83.5t225.5 -225.5t82.5 -310q0 -166 -82.5 -307t-225.5 -223t-313 -82q-169 0 -311.5 82t-224.5 223t-82 307zM272 815q0 -175 125.5 -300.5t298.5 -125.5q176 0 300 125.5t124 300.5q0 179 -123.5 304.5 t-300.5 125.5q-174 0 -299 -126t-125 -304zM410 817q0 123 89.5 212t211.5 89q126 0 217 -88q4 -4 4 -12t-4 -12l-70 -66q-14 -10 -27 0q-54 51 -120 51q-69 0 -117.5 -50.5t-48.5 -123.5q0 -71 48.5 -120.5t117.5 -49.5q64 0 120 49q13 10 27 0l70 -63q4 -5 4 -13t-4 -12 q-91 -88 -217 -88q-122 0 -211.5 88.5t-89.5 208.5z" />
<glyph unicode="&#xab;" horiz-adv-x="1032" d="M18 647q-10 11 0 21l365 465q5 5 14 5.5t15 -3.5l149 -119q15 -12 4 -23l-262 -336l270 -303q11 -11 -4 -22l-151 -125q-13 -10 -29 2zM430 647q-10 11 0 21l361 465q13 13 28 2l150 -119q15 -12 4 -23l-242 -336l250 -303q11 -11 -4 -22l-152 -125q-13 -9 -28 2z" />
<glyph unicode="&#xad;" horiz-adv-x="907" d="M68 614v213q0 6 5.5 11.5t14.5 5.5h705q18 0 18 -17v-213q0 -16 -18 -16h-705q-9 0 -14.5 5t-5.5 11z" />
<glyph unicode="&#xae;" horiz-adv-x="1382" d="M68 815q0 168 82 310t224.5 225.5t311.5 83.5q170 0 313 -83.5t225.5 -225.5t82.5 -310q0 -166 -82.5 -307t-225.5 -223t-313 -82q-169 0 -311.5 82t-224.5 223t-82 307zM279 815q0 -170 120 -291t287 -121q170 0 290 121t120 291q0 172 -119.5 293t-290.5 121 q-168 0 -287.5 -121.5t-119.5 -292.5zM477 524v574q0 16 19 16h198q101 0 162.5 -52.5t61.5 -133.5q0 -45 -28.5 -87.5t-84.5 -70.5l115 -240q4 -9 -1.5 -15.5t-17.5 -6.5h-108q-14 0 -19 10l-110 238h-48v-232q0 -6 -5.5 -11t-14.5 -5h-100q-19 0 -19 16zM616 872h78 q39 0 59.5 17t20.5 41t-21.5 41t-58.5 18h-78v-117z" />
<glyph unicode="&#xb0;" horiz-adv-x="747" d="M43 1141q0 132 96.5 227.5t229.5 95.5t229 -95.5t96 -227.5t-96 -227t-229 -95q-134 0 -230 95t-96 227zM242 1141q0 -54 37 -91.5t90 -37.5t90 37.5t37 91.5t-37.5 93.5t-89.5 39.5t-89.5 -39.5t-37.5 -93.5z" />
<glyph unicode="&#xb1;" horiz-adv-x="1060" d="M78 678v203q0 6 5.5 11t14.5 5h293v295q0 16 19 16h208q9 0 15 -5t6 -11v-295h291q7 0 12.5 -5t5.5 -11v-203q0 -5 -5.5 -9.5t-12.5 -4.5h-291v-302q0 -6 -6 -11t-15 -5h-208q-19 0 -19 16v302h-293q-8 0 -14 4.5t-6 9.5zM119 16h784v234h-784v-234z" />
<glyph unicode="&#xb2;" horiz-adv-x="698" d="M59 614v123l281 393q34 44 35 81t-19 55t-47 18q-31 0 -53.5 -18t-22.5 -54q0 -6 -5.5 -11t-14.5 -5h-133q-9 0 -15 5t-6 11q0 103 70.5 170.5t183.5 67.5q58 0 108.5 -21t83.5 -59.5t47.5 -87t1 -108.5t-55.5 -119l-209 -293h262q18 0 18 -14v-134q0 -6 -5.5 -11 t-12.5 -5h-471q-9 0 -15 5t-6 11z" />
<glyph unicode="&#xb3;" horiz-adv-x="681" d="M74 850q0 5 6 9.5t14 4.5h133q9 0 15 -4.5t6 -9.5q0 -36 23.5 -61t56.5 -25q38 0 64 26t26 60q0 42 -21.5 71t-56.5 29h-55q-21 0 -21 15v112q0 6 6 11.5t15 5.5h57q34 0 53 27.5t19 62.5t-26 59.5t-60 24.5q-33 0 -58.5 -24.5t-25.5 -59.5q0 -6 -6 -11.5t-15 -5.5h-129 q-9 0 -14.5 5.5t-5.5 11.5q0 102 74.5 176t179.5 74q107 0 183.5 -71t76.5 -179q0 -111 -82 -164q88 -60 88 -170q0 -118 -77.5 -185t-188.5 -67q-106 0 -180 74t-74 178z" />
<glyph unicode="&#xb4;" horiz-adv-x="569" d="M21 1292.5q2 6.5 10 7.5l381 209q18 7 28 -6l107 -168q7 -14 -8 -22l-389 -203q-19 -8 -29 6l-98 164q-4 6 -2 12.5z" />
<glyph unicode="&#xb7;" horiz-adv-x="417" d="M43 723q0 61 45 106t107 45q65 0 110 -44.5t45 -106.5q0 -61 -45 -104.5t-110 -43.5q-62 0 -107 44t-45 104z" />
<glyph unicode="&#xb8;" horiz-adv-x="878" d="M61 -127q0 6 6 11t13 5h190q9 0 15 -5t6 -11q0 -54 36.5 -91.5t90.5 -37.5q51 0 87 37.5t36 91.5q0 55 -36 92t-87 37q-9 0 -15 5t-6 11v193q0 14 21 14q146 0 251 -103.5t105 -248.5t-105 -249.5t-251 -104.5q-148 0 -252.5 104.5t-104.5 249.5z" />
<glyph unicode="&#xb9;" horiz-adv-x="546" d="M57 1339q-7 14 11 21l182 74h119q9 0 14.5 -5.5t5.5 -11.5v-692q0 -6 -5.5 -11t-14.5 -5h-136q-9 0 -14.5 5t-5.5 11v512l-80 -29q-18 -7 -27 6z" />
<glyph unicode="&#xbb;" horiz-adv-x="1021" d="M37 354l252 303l-244 336q-11 11 4 23l152 119q14 10 26 -2l367 -465q10 -10 0 -21l-373 -438q-14 -11 -26 -2l-154 125q-11 11 -4 22zM424 354l250 303l-242 336q-11 11 4 23l150 119q15 11 28 -2l367 -465q11 -10 0 -21l-373 -438q-15 -11 -28 -2l-152 125 q-15 11 -4 22z" />
<glyph unicode="&#xbf;" horiz-adv-x="1003" d="M59 418q0 128 95.5 234.5t230.5 144.5v233q0 14 18 14h213q9 0 15 -4.5t6 -9.5v-424q0 -16 -23 -16q-80 5 -138 -9.5t-87 -42.5t-42 -57.5t-13 -62.5q0 -172 166 -172q67 0 111 37t44 100q0 6 6 11t15 5h233q19 0 19 -16q0 -175 -123 -289t-305 -114q-194 0 -317.5 115 t-123.5 323zM350 1296q0 67 46.5 106.5t109.5 39.5q61 0 106 -39t45 -107t-46 -107.5t-109 -39.5q-62 0 -107 39t-45 108z" />
<glyph unicode="&#xc0;" d="M-12 23l559 1441q5 10 19 10t18 -10l559 -1441q4 -9 -1 -16t-16 -7h-254q-13 0 -16 10l-59 152h-465l-56 -152q-3 -10 -18 -10h-252q-12 0 -17.5 7t-0.5 16zM324 1702q-3 6 2 12l106 170q10 14 29 6l358 -207q8 -3 10 -9.5t-2 -12.5l-96 -162q-10 -14 -29 -6l-368 201 q-7 2 -10 8zM420 403h289l-144 431z" />
<glyph unicode="&#xc1;" d="M-12 23l559 1441q5 10 19 10t18 -10l559 -1441q4 -9 -1 -16t-16 -7h-254q-13 0 -16 10l-59 152h-465l-56 -152q-3 -10 -18 -10h-252q-12 0 -17.5 7t-0.5 16zM305 1673.5q3 6.5 10 7.5l381 209q19 8 29 -6l106 -168q7 -14 -8 -22l-389 -203q-18 -7 -28 6l-99 164 q-5 6 -2 12.5zM420 403h289l-144 431z" />
<glyph unicode="&#xc2;" d="M-12 23l559 1441q5 10 19 10t18 -10l559 -1441q4 -9 -1 -16t-16 -7h-254q-13 0 -16 10l-59 152h-465l-56 -152q-3 -10 -18 -10h-252q-12 0 -17.5 7t-0.5 16zM206 1627.5q2 7.5 9 10.5l340 197q3 1 10 1t10 -1l347 -186q18 -7 8 -21l-90 -155q-11 -11 -29 -7l-246 140 l-235 -140q-14 -4 -25 7l-96 141q-5 6 -3 13.5zM420 403h289l-144 431z" />
<glyph unicode="&#xc3;" d="M-12 23l559 1441q5 10 19 10t18 -10l559 -1441q4 -9 -1 -16t-16 -7h-254q-13 0 -16 10l-59 152h-465l-56 -152q-3 -10 -18 -10h-252q-12 0 -17.5 7t-0.5 16zM205 1587q15 107 75 161t150 54q87 0 170 -45h-6q1 0 5 -1t5 -1q40 -20 72 -20q33 0 53 47q9 13 25 10l161 -51 q8 -2 13 -7.5t2 -11.5q-33 -110 -87 -158t-134 -48q-74 0 -174 43l-29 10q-40 18 -60 18q-25 0 -38 -51q-8 -16 -27 -12l-162 45q-18 4 -14 18zM420 403h289l-144 431z" />
<glyph unicode="&#xc4;" d="M-12 23l559 1441q5 10 19 10t18 -10l559 -1441q4 -9 -1 -16t-16 -7h-254q-13 0 -16 10l-59 152h-465l-56 -152q-3 -10 -18 -10h-252q-12 0 -17.5 7t-0.5 16zM207 1642q0 60 44.5 104t104.5 44q62 0 108 -44t46 -104t-46 -103.5t-108 -43.5q-60 0 -104.5 43.5t-44.5 103.5 zM420 403h289l-144 431zM625 1642q0 60 45 104t106 44q62 0 107 -44t45 -104t-45 -103.5t-107 -43.5t-106.5 43.5t-44.5 103.5z" />
<glyph unicode="&#xc5;" d="M-12 23l454 1177q-77 31 -122.5 101t-45.5 159q0 117 86 202t205 85t205 -85t86 -202q0 -79 -49 -151t-121 -109l457 -1177q4 -9 -1 -16t-16 -7h-254q-13 0 -16 10l-59 152h-465l-56 -152q-3 -10 -18 -10h-252q-12 0 -17.5 7t-0.5 16zM420 397h289q-25 73 -70.5 200 t-73.5 210zM473 1460q0 -41 26.5 -68.5t65.5 -27.5q37 0 64.5 27.5t27.5 68.5q0 40 -27.5 69.5t-64.5 29.5q-38 0 -65 -29.5t-27 -69.5z" />
<glyph unicode="&#xc6;" horiz-adv-x="1617" d="M-14 8q-6 8 0 17l719 1394l-3 -8q0 1 2.5 3t2.5 3q0 6 5.5 11.5t14.5 5.5h752q9 0 14.5 -5.5t5.5 -11.5v-217q0 -6 -5.5 -11t-14.5 -5h-482v-334h387q9 0 15 -5t6 -11v-218q0 -6 -6 -11t-15 -5h-387v-350h504q9 0 15 -5.5t6 -11.5v-217q0 -6 -6 -11t-15 -5h-758 q-9 0 -14.5 5t-5.5 11v168h-334l-96 -176q-4 -8 -19 -8h-270q-12 0 -18 8zM500 418h223q0 150 12 516z" />
<glyph unicode="&#xc7;" horiz-adv-x="1421" d="M92 721q0 147 57.5 282t155 233.5t233.5 157t285 58.5q150 0 283 -56t231 -157q6 -5 6 -11t-6 -11l-166 -168q-14 -7 -28 0q-133 133 -320 133q-123 0 -227 -62.5t-164.5 -168.5t-60.5 -230q0 -190 132 -323.5t320 -133.5t320 135q14 7 28 0l166 -172q6 -5 6 -11.5 t-6 -10.5q-101 -104 -247 -166q63 -72 63 -174q0 -147 -106.5 -253t-255.5 -106q-153 0 -257 94.5t-104 241.5q0 15 21 15h194q21 0 21 -15q0 -53 35 -80.5t90 -27.5q52 0 89.5 38.5t37.5 92.5q0 51 -30.5 87t-74.5 42h2q-148 1 -282 59.5t-230.5 155.5t-153.5 231t-57 281z " />
<glyph unicode="&#xc8;" horiz-adv-x="1204" d="M145 16v1401q0 6 6 11.5t15 5.5h915q9 0 15 -5.5t6 -11.5v-227q0 -6 -6 -11t-15 -5h-661v-324h563q7 0 12.5 -5t5.5 -11v-228q0 -6 -5.5 -11t-12.5 -5h-563v-324h680q9 0 14.5 -5t5.5 -11v-234q0 -6 -5.5 -11t-14.5 -5h-934q-9 0 -15 5t-6 11zM365 1726q-3 7 2 13 l106 170q10 14 29 6l358 -207q8 -3 10 -9.5t-2 -12.5l-96 -162q-10 -14 -29 -6l-368 200q-7 1 -10 8z" />
<glyph unicode="&#xc9;" horiz-adv-x="1204" d="M145 16v1401q0 6 6 11.5t15 5.5h915q9 0 15 -5.5t6 -11.5v-227q0 -6 -6 -11t-15 -5h-661v-324h563q7 0 12.5 -5t5.5 -11v-228q0 -6 -5.5 -11t-12.5 -5h-563v-324h680q9 0 14.5 -5t5.5 -11v-234q0 -6 -5.5 -11t-14.5 -5h-934q-9 0 -15 5t-6 11zM395.5 1702q2.5 6 10.5 8 l380 209q19 8 29 -6l107 -168q7 -15 -9 -23l-389 -202q-18 -7 -28 6l-99 164q-4 6 -1.5 12z" />
<glyph unicode="&#xca;" horiz-adv-x="1204" d="M145 16v1401q0 6 6 11.5t15 5.5h915q9 0 15 -5.5t6 -11.5v-227q0 -6 -6 -11t-15 -5h-661v-324h563q7 0 12.5 -5t5.5 -11v-228q0 -6 -5.5 -11t-12.5 -5h-563v-324h680q9 0 14.5 -5t5.5 -11v-234q0 -6 -5.5 -11t-14.5 -5h-934q-9 0 -15 5t-6 11zM276 1687q2 8 9 11l340 196 q3 2 10 2t10 -2l346 -186q18 -7 8 -20l-90 -156q-10 -10 -28 -6l-246 139l-236 -139q-13 -4 -24 6l-96 141q-5 6 -3 14z" />
<glyph unicode="&#xcb;" horiz-adv-x="1204" d="M145 16v1401q0 6 6 11.5t15 5.5h915q9 0 15 -5.5t6 -11.5v-227q0 -6 -6 -11t-15 -5h-661v-324h563q7 0 12.5 -5t5.5 -11v-228q0 -6 -5.5 -11t-12.5 -5h-563v-324h680q9 0 14.5 -5t5.5 -11v-234q0 -6 -5.5 -11t-14.5 -5h-934q-9 0 -15 5t-6 11zM285 1671q0 60 44.5 104 t104.5 44q62 0 108 -44t46 -104t-46 -103.5t-108 -43.5q-60 0 -104.5 43.5t-44.5 103.5zM702 1671q0 60 45 104t107 44t107 -44t45 -104t-45 -103.5t-107 -43.5t-107 43.5t-45 103.5z" />
<glyph unicode="&#xcc;" horiz-adv-x="716" d="M49 16v213q0 6 6 11.5t15 5.5h145v942h-137q-9 0 -15 5t-6 11v213q0 6 6 11.5t15 5.5h547q9 0 14.5 -5.5t5.5 -11.5v-213q0 -6 -5.5 -11t-14.5 -5h-136v-942h144q9 0 14.5 -5.5t5.5 -11.5v-213q0 -6 -5.5 -11t-14.5 -5h-563q-9 0 -15 5t-6 11zM102.5 1716.5 q-2.5 6.5 1.5 12.5l107 169q11 14 29 7l358 -207q8 -3 10 -10t-2 -13l-96 -162q-10 -14 -29 -6l-368 201q-8 2 -10.5 8.5z" />
<glyph unicode="&#xcd;" horiz-adv-x="716" d="M49 16v213q0 6 6 11.5t15 5.5h145v942h-137q-9 0 -15 5t-6 11v213q0 6 6 11.5t15 5.5h547q9 0 14.5 -5.5t5.5 -11.5v-213q0 -6 -5.5 -11t-14.5 -5h-136v-942h144q9 0 14.5 -5.5t5.5 -11.5v-213q0 -6 -5.5 -11t-14.5 -5h-563q-9 0 -15 5t-6 11zM90 1682q3 7 10 8l381 208 q19 8 29 -6l106 -168q7 -14 -8 -22l-389 -203q-19 -8 -29 6l-98 164q-5 6 -2 13z" />
<glyph unicode="&#xce;" horiz-adv-x="716" d="M-7 1685q2 8 9 11l340 196q3 2 10 2t10 -2l347 -186q18 -7 8 -20l-90 -156q-10 -10 -29 -6l-246 139l-235 -139q-14 -5 -25 6l-96 141q-5 6 -3 14zM49 16v213q0 6 6 11.5t15 5.5h145v942h-137q-9 0 -15 5t-6 11v213q0 6 6 11.5t15 5.5h547q9 0 14.5 -5.5t5.5 -11.5v-213 q0 -6 -5.5 -11t-14.5 -5h-136v-942h144q9 0 14.5 -5.5t5.5 -11.5v-213q0 -6 -5.5 -11t-14.5 -5h-563q-9 0 -15 5t-6 11z" />
<glyph unicode="&#xcf;" horiz-adv-x="716" d="M-4 1665q0 60 44.5 103.5t104.5 43.5q62 0 108 -43.5t46 -103.5t-46 -103.5t-108 -43.5q-60 0 -104.5 43.5t-44.5 103.5zM49 16v213q0 6 6 11.5t15 5.5h145v942h-137q-9 0 -15 5t-6 11v213q0 6 6 11.5t15 5.5h547q9 0 14.5 -5.5t5.5 -11.5v-213q0 -6 -5.5 -11t-14.5 -5 h-136v-942h144q9 0 14.5 -5.5t5.5 -11.5v-213q0 -6 -5.5 -11t-14.5 -5h-563q-9 0 -15 5t-6 11zM414 1665q0 60 44.5 103.5t106.5 43.5t107 -43.5t45 -103.5t-45 -103.5t-107 -43.5t-106.5 43.5t-44.5 103.5z" />
<glyph unicode="&#xd0;" horiz-adv-x="1355" d="M-6 610v203q0 16 18 16h133v588q0 6 6 11.5t15 5.5h233q84 0 157 -6t161 -25t159.5 -50.5t141 -86.5t116.5 -128t76 -181t29 -240q0 -127 -28.5 -232t-75.5 -178t-115 -129t-140.5 -89t-159 -53.5t-162.5 -28t-159 -7.5h-233q-9 0 -15 5t-6 11v578h-133q-18 0 -18 16z M420 258q32 -4 72.5 -0.5t85 7t90 19t88.5 35.5t80.5 56.5t65.5 82t44.5 112.5t16.5 147q0 124 -41 216.5t-114.5 147t-171 79t-216.5 18.5v-349h242q9 0 14.5 -5t5.5 -11v-203q0 -6 -5.5 -11t-14.5 -5h-242v-336z" />
<glyph unicode="&#xd1;" horiz-adv-x="1519" d="M147 16v1401q0 6 6 11.5t13 5.5h237q13 0 17 -7l661 -944v934q0 6 6 11.5t15 5.5h231q9 0 15 -5.5t6 -11.5v-1401q0 -6 -6 -11t-15 -5h-235q-14 0 -17 6l-659 944v-934q0 -6 -6 -11t-15 -5h-235q-7 0 -13 5t-6 11zM397 1620q14 106 75 160.5t151 54.5q87 0 170 -45h-7 q1 0 5.5 -1t5.5 -1q42 -21 71 -21q33 0 54 48q9 13 24 10l162 -51q8 -2 12.5 -7.5t1.5 -11.5q-33 -110 -87 -158.5t-134 -48.5q-74 0 -174 43l-29 11q-41 18 -59 18q-26 0 -39 -51q-3 -6 -11.5 -10t-15.5 -3l-161 46q-19 4 -15 18z" />
<glyph unicode="&#xd2;" horiz-adv-x="1306" d="M100 918q0 144 72.5 267.5t197.5 196t271 72.5t271 -72.5t197.5 -196t72.5 -267.5q0 -145 -73 -269t-197.5 -196t-270.5 -72t-270.5 72t-197.5 196t-73 269zM154 16v232q0 6 5.5 11t14.5 5h924q9 0 14.5 -5t5.5 -11v-232q0 -6 -5.5 -11t-14.5 -5h-924q-9 0 -14.5 5 t-5.5 11zM373 918q0 -115 78.5 -194t189.5 -79q113 0 190.5 79t77.5 194q0 114 -78 193t-190 79q-111 0 -189.5 -79t-78.5 -193zM397.5 1716.5q-2.5 6.5 1.5 12.5l107 169q11 14 29 7l358 -207q8 -3 10 -10t-2 -13l-96 -162q-10 -14 -29 -6l-368 201q-8 2 -10.5 8.5z" />
<glyph unicode="&#xd3;" horiz-adv-x="1306" d="M100 918q0 144 72.5 267.5t197.5 196t271 72.5t271 -72.5t197.5 -196t72.5 -267.5q0 -145 -73 -269t-197.5 -196t-270.5 -72t-270.5 72t-197.5 196t-73 269zM154 16v232q0 6 5.5 11t14.5 5h924q9 0 14.5 -5t5.5 -11v-232q0 -6 -5.5 -11t-14.5 -5h-924q-9 0 -14.5 5 t-5.5 11zM373 918q0 -115 78.5 -194t189.5 -79q113 0 190.5 79t77.5 194q0 114 -78 193t-190 79q-111 0 -189.5 -79t-78.5 -193zM385 1702.5q3 6.5 10 7.5l381 209q19 8 29 -6l106 -168q3 -6 0.5 -13t-8.5 -10l-389 -202q-19 -8 -29 6l-98 164q-5 6 -2 12.5z" />
<glyph unicode="&#xd4;" horiz-adv-x="1306" d="M100 918q0 144 72.5 267.5t197.5 196t271 72.5t271 -72.5t197.5 -196t72.5 -267.5q0 -145 -73 -269t-197.5 -196t-270.5 -72t-270.5 72t-197.5 196t-73 269zM154 16v232q0 6 5.5 11t14.5 5h924q9 0 14.5 -5t5.5 -11v-232q0 -6 -5.5 -11t-14.5 -5h-924q-9 0 -14.5 5 t-5.5 11zM286 1660.5q2 7.5 9 10.5l340 197q3 2 10 2t10 -2l346 -187q18 -7 9 -20l-90 -156q-10 -10 -29 -6l-246 139l-235 -139q-14 -5 -25 6l-96 142q-5 6 -3 13.5zM373 918q0 -115 78.5 -194t189.5 -79q113 0 190.5 79t77.5 194q0 114 -78 193t-190 79q-111 0 -189.5 -79 t-78.5 -193z" />
<glyph unicode="&#xd5;" horiz-adv-x="1306" d="M100 918q0 144 72.5 267.5t197.5 196t271 72.5t271 -72.5t197.5 -196t72.5 -267.5q0 -145 -73 -269t-197.5 -196t-270.5 -72t-270.5 72t-197.5 196t-73 269zM154 16v232q0 6 5.5 11t14.5 5h924q9 0 14.5 -5t5.5 -11v-232q0 -6 -5.5 -11t-14.5 -5h-924q-9 0 -14.5 5 t-5.5 11zM287 1602q15 107 75 161t150 54q87 0 170 -45h-6q1 0 5 -1.5t5 -1.5q40 -20 72 -20q33 0 53 47q9 13 25 10l161 -51q8 -2 13 -7t2 -11q-33 -110 -87 -158.5t-134 -48.5q-75 0 -175 43l-28 10q-43 19 -60 19q-26 0 -39 -52q-8 -16 -26 -12l-162 45q-18 4 -14 19z M373 918q0 -115 78.5 -194t189.5 -79q113 0 190.5 79t77.5 194q0 114 -78 193t-190 79q-111 0 -189.5 -79t-78.5 -193z" />
<glyph unicode="&#xd6;" horiz-adv-x="1306" d="M100 918q0 144 72.5 267.5t197.5 196t271 72.5t271 -72.5t197.5 -196t72.5 -267.5q0 -145 -73 -269t-197.5 -196t-270.5 -72t-270.5 72t-197.5 196t-73 269zM154 16v232q0 6 5.5 11t14.5 5h924q9 0 14.5 -5t5.5 -11v-232q0 -6 -5.5 -11t-14.5 -5h-924q-9 0 -14.5 5 t-5.5 11zM289 1647q0 60 44.5 103.5t104.5 43.5q62 0 108 -43.5t46 -103.5t-46 -104t-108 -44q-60 0 -104.5 44t-44.5 104zM373 918q0 -115 78.5 -194t189.5 -79q113 0 190.5 79t77.5 194q0 114 -78 193t-190 79q-111 0 -189.5 -79t-78.5 -193zM707 1647q0 60 44.5 103.5 t106.5 43.5t107 -43.5t45 -103.5t-45 -104t-107 -44q-61 0 -106 44t-45 104z" />
<glyph unicode="&#xd7;" horiz-adv-x="825" d="M19 903q0 7 6 12l141 142q14 11 29 0l196 -197l193 195q13 10 26 0l142 -140q6 -5 6 -12t-6 -12l-197 -195l197 -196q6 -5 6 -11.5t-6 -11.5l-144 -141q-13 -10 -26 0l-195 194l-192 -194q-15 -11 -29 0l-139 141q-6 5 -6 12t6 11l196 196l-198 195q-6 5 -6 12z" />
<glyph unicode="&#xd8;" horiz-adv-x="1306" d="M102 897q0 109 43 208t115 171.5t172 115t209 42.5q111 0 211 -43l59 88q3 6 17 6h246q12 0 16.5 -8t-2.5 -17l-141 -209q135 -151 135 -354q0 -145 -73 -269t-197.5 -196t-270.5 -72q-99 0 -184 33l-51 -69q-4 -7 -17 -7h-237q-14 0 -19 8t2 17l123 176q-70 76 -113 177 t-43 202zM154 16v232q0 6 5.5 11t14.5 5h924q9 0 14.5 -5t5.5 -11v-232q0 -6 -5.5 -11t-14.5 -5h-924q-9 0 -14.5 5t-5.5 11zM373 897q0 -69 41 -145q31 45 127 186.5t155 224.5q-27 6 -55 6q-111 0 -189.5 -79t-78.5 -193zM614 627q10 -2 27 -2q112 0 190 79t78 193 q0 61 -26 121z" />
<glyph unicode="&#xd9;" horiz-adv-x="1515" d="M147 580v837q0 6 6 11.5t13 5.5h1165q9 0 15 -5.5t6 -11.5v-837q0 -21 -2.5 -52.5t-20.5 -105t-49 -135.5q-75 -148 -211.5 -227.5t-318.5 -79.5q-183 0 -320.5 79t-210.5 228q-31 62 -49 135.5t-20.5 105t-2.5 52.5zM420 580q2 -93 47 -179q82 -155 283 -155 q200 0 282 155q20 38 31.5 85t13.5 67t2 29v606h-659v-608zM502 1716q-3 7 2 13l106 169q11 14 29 7l358 -207q8 -3 10.5 -10t-1.5 -13l-97 -162q-10 -13 -28 -6l-369 201q-7 1 -10 8z" />
<glyph unicode="&#xda;" horiz-adv-x="1515" d="M147 580v837q0 6 6 11.5t13 5.5h1165q9 0 15 -5.5t6 -11.5v-837q0 -21 -2.5 -52.5t-20.5 -105t-49 -135.5q-75 -148 -211.5 -227.5t-318.5 -79.5q-183 0 -320.5 79t-210.5 228q-31 62 -49 135.5t-20.5 105t-2.5 52.5zM420 580q2 -93 47 -179q82 -155 283 -155 q200 0 282 155q20 38 31.5 85t13.5 67t2 29v606h-659v-608zM490 1702.5q3 6.5 10 7.5l381 209q18 7 28 -6l107 -168q3 -6 0.5 -13t-8.5 -10l-390 -202q-18 -7 -28 6l-98 164q-5 6 -2 12.5z" />
<glyph unicode="&#xdb;" horiz-adv-x="1515" d="M147 580v837q0 6 6 11.5t13 5.5h1165q9 0 15 -5.5t6 -11.5v-837q0 -21 -2.5 -52.5t-20.5 -105t-49 -135.5q-75 -148 -211.5 -227.5t-318.5 -79.5q-183 0 -320.5 79t-210.5 228q-31 62 -49 135.5t-20.5 105t-2.5 52.5zM390 1691q2 8 9 11l340 196q3 2 10.5 2t10.5 -2 l346 -186q18 -7 8 -20l-90 -156q-10 -10 -29 -6l-245 139l-236 -139q-14 -5 -25 6l-96 141q-5 6 -3 14zM420 580q2 -93 47 -179q82 -155 283 -155q200 0 282 155q20 38 31.5 85t13.5 67t2 29v606h-659v-608z" />
<glyph unicode="&#xdc;" horiz-adv-x="1515" d="M147 580v837q0 6 6 11.5t13 5.5h1165q9 0 15 -5.5t6 -11.5v-837q0 -21 -2.5 -52.5t-20.5 -105t-49 -135.5q-75 -148 -211.5 -227.5t-318.5 -79.5q-183 0 -320.5 79t-210.5 228q-31 62 -49 135.5t-20.5 105t-2.5 52.5zM393 1677q0 60 45 104t105 44q62 0 107.5 -44 t45.5 -104t-45.5 -103.5t-107.5 -43.5q-60 0 -105 43.5t-45 103.5zM420 580q2 -93 47 -179q82 -155 283 -155q200 0 282 155q20 38 31.5 85t13.5 67t2 29v606h-659v-608zM811 1677q0 60 45 104t107 44q61 0 106 -44t45 -104t-44.5 -103.5t-106.5 -43.5t-107 43.5t-45 103.5z " />
<glyph unicode="&#xdd;" horiz-adv-x="1320" d="M-10.5 1425q5.5 9 18.5 9h285q13 0 16 -7l342 -477l342 477q3 7 15 7h286q13 0 19 -9t-2 -18l-523 -733v-658q0 -6 -5.5 -11t-14.5 -5h-233q-9 0 -15 5t-6 11v658q-93 133 -269.5 379.5t-252.5 353.5q-8 9 -2.5 18zM393 1680q3 7 10 8l381 208q19 8 29 -6l107 -168 q7 -14 -9 -22l-389 -203q-18 -7 -28 6l-99 164q-5 6 -2 13z" />
<glyph unicode="&#xde;" horiz-adv-x="1193" d="M145 16v533q0 6 6 11t15 5h190q-41 62 -114 178.5t-97 153.5v522q0 6 6 11.5t15 5.5h233q9 0 15 -5.5t6 -11.5v-270h213q15 0 34 -1t70 -9.5t96 -23t99.5 -46t93.5 -74.5t65.5 -113t26.5 -157q0 -85 -24 -154t-59 -112t-86 -75t-94.5 -47.5t-95 -24t-76.5 -10t-50 -1.5 h-213v-285q0 -6 -6 -11t-15 -5h-233q-9 0 -15 5t-6 11zM453 883l198 -314q73 0 134 38.5t61 117.5q0 40 -16.5 70.5t-40.5 46.5t-55.5 26t-54.5 12.5t-46 2.5h-180z" />
<glyph unicode="&#xdf;" horiz-adv-x="1212" d="M147 16v1401q0 6 6 11.5t13 5.5h463q10 0 27.5 -1t67.5 -9t95.5 -22.5t101.5 -46.5t96 -74.5t67.5 -112.5t27.5 -156q0 -60 -15.5 -111.5t-38.5 -85.5t-51.5 -58.5t-54.5 -36t-47 -13.5q62 -18 107.5 -54.5t66 -75.5t32 -75t12.5 -59l1 -23q0 -86 -27.5 -155.5t-71 -112 t-96 -74t-105.5 -46t-96.5 -22.5t-71.5 -9l-27 -1q-19 0 -19 16v230q0 16 19 16q5 0 13 0.5t31.5 3.5t45 8.5t48 17t45 27.5t31.5 42.5t13 58.5q0 44 -23.5 76.5t-57 47.5t-66.5 23.5t-57 9.5l-23 1q-19 0 -19 16v231q0 7 5 12t14 5q21 0 39 1.5t53 10.5t59 25.5t43 51 t19 81.5q0 57 -36 95.5t-82.5 53.5t-96.5 15h-195l-2 -1160q0 -6 -5.5 -11t-12.5 -5h-246q-7 0 -13 5t-6 11z" />
<glyph unicode="&#xe0;" d="M-12 23l559 1441q5 10 19 10t18 -10l559 -1441q4 -9 -1 -16t-16 -7h-254q-13 0 -16 10l-59 152h-465l-56 -152q-3 -10 -18 -10h-252q-12 0 -17.5 7t-0.5 16zM324 1702q-3 6 2 12l106 170q10 14 29 6l358 -207q8 -3 10 -9.5t-2 -12.5l-96 -162q-10 -14 -29 -6l-368 201 q-7 2 -10 8zM420 403h289l-144 431z" />
<glyph unicode="&#xe1;" d="M-12 23l559 1441q5 10 19 10t18 -10l559 -1441q4 -9 -1 -16t-16 -7h-254q-13 0 -16 10l-59 152h-465l-56 -152q-3 -10 -18 -10h-252q-12 0 -17.5 7t-0.5 16zM305 1673.5q3 6.5 10 7.5l381 209q19 8 29 -6l106 -168q7 -14 -8 -22l-389 -203q-18 -7 -28 6l-99 164 q-5 6 -2 12.5zM420 403h289l-144 431z" />
<glyph unicode="&#xe2;" d="M-12 23l559 1441q5 10 19 10t18 -10l559 -1441q4 -9 -1 -16t-16 -7h-254q-13 0 -16 10l-59 152h-465l-56 -152q-3 -10 -18 -10h-252q-12 0 -17.5 7t-0.5 16zM206 1627.5q2 7.5 9 10.5l340 197q3 1 10 1t10 -1l347 -186q18 -7 8 -21l-90 -155q-11 -11 -29 -7l-246 140 l-235 -140q-14 -4 -25 7l-96 141q-5 6 -3 13.5zM420 403h289l-144 431z" />
<glyph unicode="&#xe3;" d="M-12 23l559 1441q5 10 19 10t18 -10l559 -1441q4 -9 -1 -16t-16 -7h-254q-13 0 -16 10l-59 152h-465l-56 -152q-3 -10 -18 -10h-252q-12 0 -17.5 7t-0.5 16zM205 1595q15 107 75 161t150 54q87 0 170 -45h-6q1 0 5 -1t5 -1q40 -20 72 -20q33 0 53 47q9 13 25 10l161 -51 q8 -2 13 -7t2 -11q-33 -110 -87 -158.5t-134 -48.5q-74 0 -174 43l-29 10q-40 18 -60 18q-25 0 -38 -51q-8 -16 -27 -12l-162 45q-18 4 -14 18zM420 403h289l-144 431z" />
<glyph unicode="&#xe4;" d="M-12 23l559 1441q5 10 19 10t18 -10l559 -1441q4 -9 -1 -16t-16 -7h-254q-13 0 -16 10l-59 152h-465l-56 -152q-3 -10 -18 -10h-252q-12 0 -17.5 7t-0.5 16zM207 1642q0 60 44.5 104t104.5 44q62 0 108 -44t46 -104t-46 -103.5t-108 -43.5q-60 0 -104.5 43.5t-44.5 103.5 zM420 403h289l-144 431zM625 1642q0 60 45 104t106 44q62 0 107 -44t45 -104t-45 -103.5t-107 -43.5t-106.5 43.5t-44.5 103.5z" />
<glyph unicode="&#xe5;" d="M-8 23l450 1165q-77 32 -122.5 101.5t-45.5 156.5q0 117 85 201t204 84q117 0 202 -84t85 -201q0 -77 -48.5 -148.5t-119.5 -109.5l455 -1165q5 -9 -1 -16t-18 -7h-250q-15 0 -18 10l-57 150h-461l-56 -150q-3 -10 -18 -10h-250q-11 0 -15.5 7t-0.5 16zM420 393h285 q-20 57 -66 188t-76 220zM471 1446q0 -40 27 -67t65 -27q37 0 63.5 27.5t26.5 66.5q0 41 -26.5 69.5t-63.5 28.5q-38 0 -65 -28.5t-27 -69.5z" />
<glyph unicode="&#xe6;" horiz-adv-x="1617" d="M-10 8q-6 8 0 17l733 1382l-2 -8q0 1 2 3t2 3q0 16 18 16h725q9 0 15 -5t6 -11v-225q0 -6 -6 -11.5t-15 -5.5h-477v-321h383q9 0 15 -5.5t6 -11.5v-221q0 -6 -6 -11t-15 -5h-383v-332h502q7 0 12.5 -5t5.5 -11v-224q0 -6 -5.5 -11t-12.5 -5h-754q-7 0 -12.5 5t-5.5 11 v144h-346l-82 -152q-4 -8 -17 -8h-268q-12 0 -18 8zM496 412h225q0 49 1 145.5t1 144.5l8 205l-102 -237z" />
<glyph unicode="&#xe7;" horiz-adv-x="1421" d="M102 711q0 192 95.5 355.5t260.5 259t359 95.5q147 0 277 -55t227 -154q6 -4 6 -12t-6 -12l-162 -162q-15 -11 -29 0q-131 131 -313 131q-183 0 -312.5 -130t-129.5 -316t129.5 -316.5t312.5 -130.5q182 0 313 131q14 11 29 0l162 -166q6 -5 6 -11t-6 -11 q-98 -98 -242 -162q62 -75 62 -170q0 -144 -105 -248t-250 -104q-150 0 -251 91.5t-101 235.5q0 6 6 11.5t15 5.5h188q7 0 13 -5.5t6 -11.5q0 -51 34.5 -77.5t89.5 -26.5q51 0 87 37.5t36 91.5q0 49 -29.5 84t-72.5 41h2q-192 2 -355 98t-257.5 259t-94.5 354z" />
<glyph unicode="&#xe8;" horiz-adv-x="1204" d="M145 16v1401q0 6 6 11.5t15 5.5h915q9 0 15 -5.5t6 -11.5v-227q0 -6 -6 -11t-15 -5h-661v-324h563q7 0 12.5 -5t5.5 -11v-228q0 -6 -5.5 -11t-12.5 -5h-563v-324h680q9 0 14.5 -5t5.5 -11v-234q0 -6 -5.5 -11t-14.5 -5h-934q-9 0 -15 5t-6 11zM406 1726q-3 7 2 13 l106 170q10 14 29 6l358 -207q8 -3 10 -9.5t-2 -12.5l-96 -162q-10 -14 -29 -6l-368 200q-7 1 -10 8z" />
<glyph unicode="&#xe9;" horiz-adv-x="1204" d="M145 16v1401q0 6 6 11.5t15 5.5h915q9 0 15 -5.5t6 -11.5v-227q0 -6 -6 -11t-15 -5h-661v-324h563q7 0 12.5 -5t5.5 -11v-228q0 -6 -5.5 -11t-12.5 -5h-563v-324h680q9 0 14.5 -5t5.5 -11v-234q0 -6 -5.5 -11t-14.5 -5h-934q-9 0 -15 5t-6 11zM395.5 1702q2.5 6 10.5 8 l380 209q19 8 29 -6l107 -168q7 -15 -9 -23l-389 -202q-18 -7 -28 6l-99 164q-4 6 -1.5 12z" />
<glyph unicode="&#xea;" horiz-adv-x="1204" d="M145 16v1401q0 6 6 11.5t15 5.5h915q9 0 15 -5.5t6 -11.5v-227q0 -6 -6 -11t-15 -5h-661v-324h563q7 0 12.5 -5t5.5 -11v-228q0 -6 -5.5 -11t-12.5 -5h-563v-324h680q9 0 14.5 -5t5.5 -11v-234q0 -6 -5.5 -11t-14.5 -5h-934q-9 0 -15 5t-6 11zM294 1693q2 8 9 11l340 197 q3 1 10.5 1t10.5 -1l346 -187q18 -7 8 -20l-90 -156q-10 -10 -29 -6l-246 139l-235 -139q-14 -5 -25 6l-96 141q-5 6 -3 14z" />
<glyph unicode="&#xeb;" horiz-adv-x="1204" d="M145 16v1401q0 6 6 11.5t15 5.5h915q9 0 15 -5.5t6 -11.5v-227q0 -6 -6 -11t-15 -5h-661v-324h563q7 0 12.5 -5t5.5 -11v-228q0 -6 -5.5 -11t-12.5 -5h-563v-324h680q9 0 14.5 -5t5.5 -11v-234q0 -6 -5.5 -11t-14.5 -5h-934q-9 0 -15 5t-6 11zM317 1657q0 60 45 103.5 t105 43.5q62 0 108 -43.5t46 -103.5t-46 -104t-108 -44q-60 0 -105 44t-45 104zM735 1657q0 60 45 103.5t107 43.5t106.5 -43.5t44.5 -103.5t-45 -104t-106 -44q-62 0 -107 44t-45 104z" />
<glyph unicode="&#xec;" horiz-adv-x="573" d="M31 1730q-3 7 2 13l106 170q10 14 29 6l358 -207q8 -3 10.5 -9.5t-1.5 -12.5l-97 -162q-10 -13 -28 -6l-369 200q-7 1 -10 8zM147 16v1401q0 6 6 11.5t15 5.5h231q9 0 15 -5.5t6 -11.5v-1401q0 -6 -6 -11t-15 -5h-231q-9 0 -15 5t-6 11z" />
<glyph unicode="&#xed;" horiz-adv-x="573" d="M21 1708q2 6 10 8l381 209q18 7 28 -6l107 -168q7 -14 -8 -22l-389 -203q-19 -8 -29 6l-98 164q-4 6 -2 12zM147 16v1401q0 6 6 11.5t15 5.5h231q9 0 15 -5.5t6 -11.5v-1401q0 -6 -6 -11t-15 -5h-231q-9 0 -15 5t-6 11z" />
<glyph unicode="&#xee;" horiz-adv-x="573" d="M-79 1666.5q2 7.5 9 10.5l340 197q3 2 10.5 2t10.5 -2l346 -186q18 -7 8 -21l-90 -156q-10 -10 -29 -6l-245 140l-236 -140q-14 -5 -25 6l-96 142q-5 6 -3 13.5zM147 16v1401q0 6 6 11.5t15 5.5h231q9 0 15 -5.5t6 -11.5v-1401q0 -6 -6 -11t-15 -5h-231q-9 0 -15 5t-6 11 z" />
<glyph unicode="&#xef;" horiz-adv-x="573" d="M-78 1683q0 60 45 104t105 44q62 0 107.5 -44t45.5 -104t-45.5 -103.5t-107.5 -43.5q-60 0 -105 43.5t-45 103.5zM147 16v1401q0 6 6 11.5t15 5.5h231q9 0 15 -5.5t6 -11.5v-1401q0 -6 -6 -11t-15 -5h-231q-9 0 -15 5t-6 11zM340 1683q0 60 45 104t107 44q61 0 106 -44 t45 -104t-44.5 -103.5t-106.5 -43.5t-107 43.5t-45 103.5z" />
<glyph unicode="&#xf0;" horiz-adv-x="1355" d="M-4 616v189q0 6 5.5 11t14.5 5h131v584q0 16 19 16h233q83 0 155.5 -6t159.5 -24.5t157.5 -49.5t139.5 -85.5t116 -127.5t75.5 -179.5t28.5 -237.5q0 -126 -28 -230.5t-75 -177t-114.5 -127.5t-139 -88t-157 -53.5t-161 -27.5t-157.5 -7h-233q-19 0 -19 16v584h-131 q-9 0 -14.5 5t-5.5 11zM401 258q7 -2 17 -2v-14zM418 256q12 -2 53 -2q38 0 75 3.5t87 15.5t93 31t86.5 54.5t74 81.5t50 116t19.5 155t-18.5 154.5t-48 116t-71.5 81.5t-84 55t-91 32t-86 15.5t-76 3.5l-63 -2v-346h241q7 0 13 -5t6 -11v-189q0 -6 -6 -11t-13 -5h-241v-344 z" />
<glyph unicode="&#xf1;" horiz-adv-x="1519" d="M147 16v1401q0 6 6 11.5t13 5.5h237q13 0 17 -7l661 -944v934q0 6 6 11.5t15 5.5h231q9 0 15 -5.5t6 -11.5v-1401q0 -6 -6 -11t-15 -5h-235q-14 0 -17 6l-659 944v-934q0 -6 -6 -11t-15 -5h-235q-7 0 -13 5t-6 11zM397 1620q14 106 75 160.5t151 54.5q87 0 170 -45h-7 q1 0 5.5 -1t5.5 -1q42 -21 71 -21q33 0 54 48q9 13 24 10l162 -51q8 -2 12.5 -7.5t1.5 -11.5q-33 -110 -87 -158.5t-134 -48.5q-74 0 -174 43l-29 11q-41 18 -59 18q-26 0 -39 -51q-3 -6 -11.5 -10t-15.5 -3l-161 46q-19 4 -15 18z" />
<glyph unicode="&#xf2;" horiz-adv-x="1632" d="M94 719q0 112 27.5 217.5t86 199.5t141 165t200 112t256.5 41q137 0 253 -41t198.5 -112t140.5 -165t86 -199.5t28 -217.5t-28 -218t-86 -200t-140.5 -165t-198.5 -112.5t-253 -41.5q-139 0 -256.5 41.5t-200 112.5t-141 165.5t-86 200t-27.5 217.5zM373 715 q0 -91 27.5 -175t79.5 -151.5t136 -108t189 -40.5q103 0 186.5 40.5t136 108t80 151.5t27.5 175q0 92 -27.5 176.5t-80 152.5t-136 109t-186.5 41q-105 0 -189 -41t-136 -109t-79.5 -152.5t-27.5 -176.5zM557 1726q-3 7 2 13l107 170q10 13 28 6l359 -207q8 -3 10 -9.5 t-2 -12.5l-96 -162q-10 -14 -29 -6l-369 200q-7 1 -10 8z" />
<glyph unicode="&#xf3;" horiz-adv-x="1632" d="M94 719q0 112 27.5 217.5t86 199.5t141 165t200 112t256.5 41q137 0 253 -41t198.5 -112t140.5 -165t86 -199.5t28 -217.5t-28 -218t-86 -200t-140.5 -165t-198.5 -112.5t-253 -41.5q-139 0 -256.5 41.5t-200 112.5t-141 165.5t-86 200t-27.5 217.5zM373 715 q0 -91 27.5 -175t79.5 -151.5t136 -108t189 -40.5q103 0 186.5 40.5t136 108t80 151.5t27.5 175q0 92 -27.5 176.5t-80 152.5t-136 109t-186.5 41q-105 0 -189 -41t-136 -109t-79.5 -152.5t-27.5 -176.5zM563 1702.5q3 6.5 10 7.5l381 209q19 8 29 -6l107 -168q7 -15 -9 -23 l-389 -202q-18 -7 -28 6l-99 164q-5 6 -2 12.5z" />
<glyph unicode="&#xf4;" horiz-adv-x="1632" d="M94 719q0 112 27.5 217.5t86 199.5t141 165t200 112t256.5 41q137 0 253 -41t198.5 -112t140.5 -165t86 -199.5t28 -217.5t-28 -218t-86 -200t-140.5 -165t-198.5 -112.5t-253 -41.5q-139 0 -256.5 41.5t-200 112.5t-141 165.5t-86 200t-27.5 217.5zM373 715 q0 -91 27.5 -175t79.5 -151.5t136 -108t189 -40.5q103 0 186.5 40.5t136 108t80 151.5t27.5 175q0 92 -27.5 176.5t-80 152.5t-136 109t-186.5 41q-105 0 -189 -41t-136 -109t-79.5 -152.5t-27.5 -176.5zM450 1664.5q2 7.5 9 10.5l340 197q3 2 10 2t10 -2l346 -186 q19 -8 9 -21l-91 -156q-10 -10 -28 -6l-246 139l-236 -139q-13 -5 -24 6l-96 142q-5 6 -3 13.5z" />
<glyph unicode="&#xf5;" horiz-adv-x="1632" d="M94 719q0 112 27.5 217.5t86 199.5t141 165t200 112t256.5 41q137 0 253 -41t198.5 -112t140.5 -165t86 -199.5t28 -217.5t-28 -218t-86 -200t-140.5 -165t-198.5 -112.5t-253 -41.5q-139 0 -256.5 41.5t-200 112.5t-141 165.5t-86 200t-27.5 217.5zM373 715 q0 -91 27.5 -175t79.5 -151.5t136 -108t189 -40.5q103 0 186.5 40.5t136 108t80 151.5t27.5 175q0 92 -27.5 176.5t-80 152.5t-136 109t-186.5 41q-105 0 -189 -41t-136 -109t-79.5 -152.5t-27.5 -176.5zM461 1632q15 107 75 161t150 54q87 0 170 -45h-6q1 0 5 -1t5 -1 q40 -20 72 -20q33 0 53 47q9 13 25 10l161 -51q8 -2 13 -7.5t2 -11.5q-33 -110 -87 -158t-134 -48q-74 0 -174 43l-29 10q-41 18 -60 18q-25 0 -38 -51q-8 -16 -27 -12l-162 45q-18 4 -14 18z" />
<glyph unicode="&#xf6;" horiz-adv-x="1632" d="M94 719q0 112 27.5 217.5t86 199.5t141 165t200 112t256.5 41q137 0 253 -41t198.5 -112t140.5 -165t86 -199.5t28 -217.5t-28 -218t-86 -200t-140.5 -165t-198.5 -112.5t-253 -41.5q-139 0 -256.5 41.5t-200 112.5t-141 165.5t-86 200t-27.5 217.5zM373 715 q0 -91 27.5 -175t79.5 -151.5t136 -108t189 -40.5q103 0 186.5 40.5t136 108t80 151.5t27.5 175q0 92 -27.5 176.5t-80 152.5t-136 109t-186.5 41q-105 0 -189 -41t-136 -109t-79.5 -152.5t-27.5 -176.5zM451 1679q0 60 44.5 104t104.5 44q62 0 108 -44t46 -104t-46 -103.5 t-108 -43.5q-60 0 -104.5 43.5t-44.5 103.5zM868 1679q0 60 45 104t107 44q61 0 106 -44t45 -104t-44.5 -103.5t-106.5 -43.5t-107 43.5t-45 103.5z" />
<glyph unicode="&#xf7;" horiz-adv-x="1003" d="M100 588h811v223h-811v-223zM348 356q0 63 46 108.5t112 45.5q67 0 113.5 -45.5t46.5 -108.5t-46.5 -108t-113.5 -45q-66 0 -112 45t-46 108zM348 1040q0 63 46 108.5t112 45.5q67 0 113.5 -45.5t46.5 -108.5q0 -65 -46.5 -110t-113.5 -45q-66 0 -112 45t-46 110z" />
<glyph unicode="&#xf8;" horiz-adv-x="1632" d="M94 713q0 110 27.5 214.5t85.5 197.5t140 163t199 111t255 41q128 0 241 -37l78 139q4 8 19 8h235q12 0 18 -7.5t1 -16.5l-136 -244q123 -102 184.5 -251.5t61.5 -319.5q0 -110 -27.5 -214.5t-85 -197t-139 -162.5t-197.5 -110.5t-253 -40.5q-140 0 -252 41 q-4 -7 -84 -148q-4 -8 -19 -8h-229q-12 0 -18 8t0 17l139 249q-117 104 -180.5 255.5t-63.5 312.5zM371 711q0 -202 104 -322q75 132 217 389t217 389q-62 15 -108 15q-84 0 -155.5 -26.5t-121 -72t-85 -106t-52 -128t-16.5 -138.5zM678 258q62 -16 123 -16q83 0 154 26.5 t121 71.5t85.5 105t52.5 127.5t17 138.5q0 207 -113 331q-81 -143 -235.5 -419t-204.5 -365z" />
<glyph unicode="&#xf9;" horiz-adv-x="1398" d="M147 461v944q0 6 6 11t15 5h231q9 0 15 -5t6 -11v-942q12 -103 87.5 -161t180.5 -58q70 0 129.5 23t99 74t39.5 120v944q0 6 6 11t15 5h233q7 0 13 -5t6 -11v-944q0 -149 -71.5 -259t-193 -166t-276.5 -56q-149 0 -271.5 57.5t-196 168.5t-73.5 255zM414 1702q-3 6 2 12 l106 170q10 14 29 6l358 -207q8 -3 10.5 -9.5t-1.5 -12.5l-97 -162q-10 -13 -28 -6l-369 201q-7 2 -10 8z" />
<glyph unicode="&#xfa;" horiz-adv-x="1398" d="M147 461v944q0 6 6 11t15 5h231q9 0 15 -5t6 -11v-942q12 -103 87.5 -161t180.5 -58q70 0 129.5 23t99 74t39.5 120v944q0 6 6 11t15 5h233q7 0 13 -5t6 -11v-944q0 -149 -71.5 -259t-193 -166t-276.5 -56q-149 0 -271.5 57.5t-196 168.5t-73.5 255zM449 1669.5 q3 6.5 10 7.5l381 209q18 7 28 -6l107 -168q7 -14 -8 -22l-389 -203q-19 -8 -29 6l-98 164q-5 6 -2 12.5z" />
<glyph unicode="&#xfb;" horiz-adv-x="1398" d="M147 461v944q0 6 6 11t15 5h231q9 0 15 -5t6 -11v-942q12 -103 87.5 -161t180.5 -58q70 0 129.5 23t99 74t39.5 120v944q0 6 6 11t15 5h233q7 0 13 -5t6 -11v-944q0 -149 -71.5 -259t-193 -166t-276.5 -56q-149 0 -271.5 57.5t-196 168.5t-73.5 255zM333 1660.5 q2 7.5 9 10.5l340 197q3 2 10 2t10 -2l347 -187q18 -7 8 -20l-90 -156q-10 -10 -29 -6l-246 139l-235 -139q-14 -5 -25 6l-96 142q-5 6 -3 13.5z" />
<glyph unicode="&#xfc;" horiz-adv-x="1398" d="M147 461v944q0 6 6 11t15 5h231q9 0 15 -5t6 -11v-942q12 -103 87.5 -161t180.5 -58q70 0 129.5 23t99 74t39.5 120v944q0 6 6 11t15 5h233q7 0 13 -5t6 -11v-944q0 -149 -71.5 -259t-193 -166t-276.5 -56q-149 0 -271.5 57.5t-196 168.5t-73.5 255zM334 1659 q0 60 44.5 103.5t104.5 43.5q62 0 108 -43.5t46 -103.5t-46 -104t-108 -44q-60 0 -104.5 44t-44.5 104zM752 1659q0 60 44.5 103.5t106.5 43.5t107 -43.5t45 -103.5t-45 -104t-107 -44q-61 0 -106 44t-45 104z" />
<glyph unicode="&#xfd;" horiz-adv-x="1320" d="M-8.5 1425q5.5 9 18.5 9h285q11 0 14 -7l340 -485l338 485q3 7 14 7h285q13 0 19 -9t-2 -18l-519 -737v-654q0 -6 -5.5 -11t-14.5 -5h-232q-9 0 -14.5 5t-5.5 11v654q-495 704 -518 737q-8 9 -2.5 18zM401.5 1685.5q2.5 6.5 10.5 8.5l381 209q17 7 28 -7l107 -167 q3 -6 0.5 -13t-8.5 -10l-390 -203q-18 -7 -28 6l-99 164q-4 6 -1.5 12.5z" />
<glyph unicode="&#xfe;" horiz-adv-x="1187" d="M147 12v1393q0 6 6 11t13 5h233q19 0 19 -16v-254h213q10 0 27.5 -1t68 -9t96 -22.5t101.5 -46.5t96.5 -74.5t68 -112.5t27.5 -156q0 -68 -16.5 -126t-44.5 -98.5t-64.5 -73.5t-76.5 -53.5t-80.5 -35.5t-77 -21.5t-64.5 -10.5t-44 -4l-17 -1h-213v-293q0 -16 -19 -16 h-233q-7 0 -13 5t-6 11zM418 569h213q9 0 23 1t51 9.5t65 23.5t51 48t23 78q0 44 -22 76.5t-53 47.5t-62.5 23.5t-53.5 9.5l-22 1h-213v-318z" />
<glyph unicode="&#xff;" horiz-adv-x="1320" d="M-8.5 1425q5.5 9 18.5 9h285q11 0 14 -7l340 -485l338 485q3 7 14 7h285q13 0 19 -9t-2 -18l-519 -737v-654q0 -6 -5.5 -11t-14.5 -5h-232q-9 0 -14.5 5t-5.5 11v654q-495 704 -518 737q-8 9 -2.5 18zM295 1657q0 60 44.5 103.5t104.5 43.5q62 0 108 -43.5t46 -103.5 t-46 -104t-108 -44q-60 0 -104.5 44t-44.5 104zM713 1657q0 60 44.5 103.5t106.5 43.5t107 -43.5t45 -103.5t-45 -104t-107 -44q-61 0 -106 44t-45 104z" />
<glyph unicode="&#x152;" horiz-adv-x="1937" d="M115 719q0 112 27 217.5t84 199t137.5 164t194 111.5t247.5 41q86 0 174 -18h782q9 0 15 -5.5t6 -11.5v-223q0 -6 -6 -11t-15 -5h-553v-328h463q9 0 15 -5t6 -11v-224q0 -6 -6 -11t-15 -5h-463v-332h580q9 0 14.5 -5t5.5 -11v-230q0 -6 -5.5 -11t-14.5 -5l-817 2 q-78 -16 -166 -16q-134 0 -247.5 41t-194 111.5t-137.5 164t-84 199t-27 217.5zM406 717q0 -94 25.5 -181t73.5 -157.5t126 -113t174 -42.5q73 0 141 21v946q-72 20 -141 20q-77 0 -143 -27.5t-112.5 -75t-79.5 -110.5t-48.5 -134t-15.5 -146z" />
<glyph unicode="&#x153;" horiz-adv-x="1937" d="M119 713q0 110 27 214.5t83 197.5t135.5 163t192.5 111t246 41q79 0 172 -19h774q9 0 14.5 -5t5.5 -11v-221q0 -6 -5.5 -11.5t-14.5 -5.5h-547v-325h459q7 0 12.5 -5.5t5.5 -11.5v-219q0 -6 -5.5 -11t-12.5 -5h-459v-330h576q9 0 14.5 -5t5.5 -11v-228q0 -6 -5.5 -11 t-14.5 -5l-811 2q-78 -16 -164 -16q-133 0 -246 41t-192.5 111t-135.5 163t-83 197.5t-27 214.5zM406 711q0 -93 25.5 -179.5t73.5 -156t125.5 -111t172.5 -41.5q81 0 139 19v938q-82 20 -139 20q-95 0 -172.5 -42t-125.5 -111.5t-73.5 -156t-25.5 -179.5z" />
<glyph unicode="&#x178;" horiz-adv-x="1320" d="M-10.5 1425q5.5 9 18.5 9h285q13 0 16 -7l342 -477l342 477q3 7 15 7h286q13 0 19 -9t-2 -18l-523 -733v-658q0 -6 -5.5 -11t-14.5 -5h-233q-9 0 -15 5t-6 11v658q-93 133 -269.5 379.5t-252.5 353.5q-8 9 -2.5 18zM295 1673q0 60 44.5 104t104.5 44q62 0 108 -44 t46 -104t-46 -103.5t-108 -43.5q-60 0 -104.5 43.5t-44.5 103.5zM713 1673q0 60 45 104t106 44q62 0 107 -44t45 -104t-45 -103.5t-107 -43.5t-106.5 43.5t-44.5 103.5z" />
<glyph unicode="&#x2c6;" horiz-adv-x="802" d="M42 1281.5q2 7.5 9 10.5l340 197q3 1 10.5 1t10.5 -1l346 -186q18 -7 8 -21l-90 -156q-10 -10 -29 -6l-246 140l-235 -140q-14 -5 -25 6l-96 142q-5 6 -3 13.5z" />
<glyph unicode="&#x2dc;" horiz-adv-x="802" d="M41 1237q15 107 75 161t150 54q87 0 170 -45h-6q1 0 5 -1t5 -1q42 -21 72 -21q32 0 53 48q9 13 25 10l162 -51q8 -2 12.5 -7.5t1.5 -11.5q-33 -110 -87 -158.5t-134 -48.5q-74 0 -174 43l-29 11q-40 18 -59 18q-26 0 -39 -51q-8 -16 -27 -12l-162 45q-18 4 -14 18z" />
<glyph unicode="&#x2000;" horiz-adv-x="963" />
<glyph unicode="&#x2001;" horiz-adv-x="1927" />
<glyph unicode="&#x2002;" horiz-adv-x="963" />
<glyph unicode="&#x2003;" horiz-adv-x="1927" />
<glyph unicode="&#x2004;" horiz-adv-x="642" />
<glyph unicode="&#x2005;" horiz-adv-x="481" />
<glyph unicode="&#x2006;" horiz-adv-x="321" />
<glyph unicode="&#x2007;" horiz-adv-x="321" />
<glyph unicode="&#x2008;" horiz-adv-x="240" />
<glyph unicode="&#x2009;" horiz-adv-x="385" />
<glyph unicode="&#x200a;" horiz-adv-x="107" />
<glyph unicode="&#x2010;" horiz-adv-x="907" d="M68 614v213q0 6 5.5 11.5t14.5 5.5h705q18 0 18 -17v-213q0 -16 -18 -16h-705q-9 0 -14.5 5t-5.5 11z" />
<glyph unicode="&#x2011;" horiz-adv-x="907" d="M68 614v213q0 6 5.5 11.5t14.5 5.5h705q18 0 18 -17v-213q0 -16 -18 -16h-705q-9 0 -14.5 5t-5.5 11z" />
<glyph unicode="&#x2012;" horiz-adv-x="907" d="M68 614v213q0 6 5.5 11.5t14.5 5.5h705q18 0 18 -17v-213q0 -16 -18 -16h-705q-9 0 -14.5 5t-5.5 11z" />
<glyph unicode="&#x2013;" horiz-adv-x="1042" d="M63 586v223q0 6 6 11t15 5h846q9 0 14.5 -5t5.5 -11v-223q0 -5 -6 -10t-14 -5h-846q-8 0 -14.5 5t-6.5 10z" />
<glyph unicode="&#x2014;" horiz-adv-x="1185" d="M63 586v223q0 6 6 11t15 5h967q9 0 14.5 -5t5.5 -11v-223q0 -5 -6 -10t-14 -5h-967q-8 0 -14.5 5t-6.5 10z" />
<glyph unicode="&#x201a;" horiz-adv-x="411" d="M41 125q0 57 42 98t101 41q83 0 122.5 -44t39.5 -114q0 -80 -45 -167t-106 -125q-11 -6 -21 -1.5t-10 15.5v156q-52 6 -87.5 46.5t-35.5 94.5z" />
<glyph unicode="&#x201e;" horiz-adv-x="804" d="M41 125q0 57 42 98t101 41q83 0 122.5 -44t39.5 -114q0 -80 -45 -167t-106 -125q-11 -6 -21 -1.5t-10 15.5v156q-52 6 -87.5 46.5t-35.5 94.5zM416 125q0 57 42 98t101 41q83 0 122.5 -44t39.5 -114q0 -80 -45.5 -167t-106.5 -125q-11 -6 -20.5 -1.5t-9.5 15.5v156 q-52 6 -87.5 46.5t-35.5 94.5z" />
<glyph unicode="&#x2022;" horiz-adv-x="638" d="M63 717q0 96 70 163.5t166 67.5q100 0 169 -67t69 -164q0 -96 -69.5 -164t-168.5 -68q-96 0 -166 68.5t-70 163.5z" />
<glyph unicode="&#x2026;" horiz-adv-x="1138" d="M39 129q0 59 42.5 101t100.5 42q62 0 105 -42t43 -101t-42.5 -100t-105.5 -41q-59 0 -101 41.5t-42 99.5zM399 129q0 58 42.5 100.5t101.5 42.5q62 0 104.5 -42t42.5 -101t-42 -100t-105 -41q-59 0 -101.5 41.5t-42.5 99.5zM760 129q0 59 42 101t101 42q62 0 105 -42 t43 -101t-42.5 -100t-105.5 -41q-59 0 -101 41.5t-42 99.5z" />
<glyph unicode="&#x202f;" horiz-adv-x="385" />
<glyph unicode="&#x2039;" horiz-adv-x="643" d="M25 647q-11 11 0 21l366 465q5 5 14 5.5t15 -3.5l149 -119q15 -12 4 -23l-241 -336l250 -303q11 -11 -4 -22l-152 -125q-13 -10 -29 2z" />
<glyph unicode="&#x203a;" horiz-adv-x="643" d="M37 354l252 303l-244 336q-11 11 4 23l152 119q5 4 13 3.5t13 -5.5l367 -465q10 -10 0 -21l-373 -438q-14 -11 -26 -2l-154 125q-15 11 -4 22z" />
<glyph unicode="&#x205f;" horiz-adv-x="481" />
<glyph unicode="&#x20ac;" horiz-adv-x="1214" d="M-2 477v172q0 6 5.5 11.5t14.5 5.5h93q-2 27 -2 82h-91q-8 0 -14 4.5t-6 9.5v174q0 5 6 9.5t14 4.5h127q33 102 89 187.5t138 153t196.5 105.5t250.5 38q164 0 322 -84q6 -3 8 -10t-2 -13l-107 -207q-11 -11 -28 -4q-104 51 -193 51q-135 0 -230 -58t-149 -159h316 q8 0 14 -4.5t6 -9.5v-174q0 -5 -6 -9.5t-14 -4.5h-371q-4 -48 2 -82h369q9 0 14.5 -5.5t5.5 -11.5v-172q0 -6 -5.5 -11t-14.5 -5h-301q55 -90 147.5 -142.5t216.5 -52.5q115 0 217 47q19 6 25 -6l80 -223q4 -15 -11 -21q-138 -63 -311 -63q-134 0 -246.5 35t-193 99 t-137 145.5t-90.5 181.5h-134q-9 0 -14.5 5t-5.5 11z" />
<glyph unicode="&#x2122;" horiz-adv-x="1323" d="M53 1327v90q0 6 6 11.5t13 5.5h377q9 0 14.5 -5.5t5.5 -11.5v-90q0 -6 -5.5 -11t-14.5 -5h-117v-488q0 -6 -6 -11t-15 -5h-100q-9 0 -15 5t-6 11v488h-118q-7 0 -13 5t-6 11zM549 813v612q0 9 8 9h121q4 0 8 -4l223 -429l213 429q4 4 8 4h117q8 0 8 -9v-612q0 -8 -8 -8 h-114q-9 0 -9 8v352l-157 -331q-5 -5 -9 -5h-96q-3 0 -8 5l-170 340v-361q0 -8 -8 -8h-119q-8 0 -8 8z" />
<glyph unicode="&#x25fc;" horiz-adv-x="1433" d="M0 0v1434h1434v-1434h-1434z" />
</font>
</defs>
</svg>
